<?xml version="1.0" encoding="UTF-8" standalone="no"?>
<!DOCTYPE svg PUBLIC "-//W3C//DTD SVG 1.1//EN" "http://www.w3.org/Graphics/SVG/1.1/DTD/svg11.dtd">
<!--
2016-2-8: Created with FontForge (http://fontforge.org)
-->
<svg xmlns="http://www.w3.org/2000/svg" xmlns:xlink="http://www.w3.org/1999/xlink" version="1.1">
<metadata>
Created by FontForge 20151118 at Mon Feb  8 11:58:02 2016
 By shyndman
Copyright 2015 Google, Inc. All Rights Reserved.
</metadata>
<defs>
<font id="MaterialIcons-Regular" horiz-adv-x="512">
  <font-face font-family="Material Icons" font-weight="400" font-stretch="normal" units-per-em="512" panose-1="2 0 5 3 0 0 0 0 0 0" ascent="512" descent="0" bbox="0 0 512 512" underline-thickness="50" underline-position="-100" unicode-range="U+0030-10FFFD"/>
    <missing-glyph/>
    <glyph glyph-name="3d_rotation" unicode="3d_rotation" d="M256 512c134 0 244 -103 255 -234h-32c-7 80 -57 147 -127 180l-29 -28l-81 81zM353 260c0 34.9356 -13.6691 57 -47 57h-20v-123h19c25.6434 0 40.2719 13.9518 46 34c2 7 2 15 2 24v8zM306 341c38.1819 0 60.9327 -19.3318 72 -47c4 -10 5 -22 5 -34v-8 c0 -26.4057 -7.57104 -45.571 -21 -59c-13.4122 -13.4122 -30.5519 -22 -57 -22h-49v170h50zM207 258c15.3033 -6.12131 28 -18.2465 28 -39c0 -8 -2 -14 -5 -20s-6 -12 -11 -16c-9.37815 -7.50252 -23.5479 -12 -40 -12c-31.0959 0 -54 15.7441 -54 47h27 c0 -15.4518 11.6022 -25 27 -25c17.8699 0 28 8.53939 28 27c0 18.8434 -12.3951 27 -31 27h-16v22h16c17.3039 0 29 8.03066 29 25c0 16.5246 -8.84017 25 -26 25c-14.4441 0 -25 -8.58131 -25 -23h-28c0 14.8936 7.55163 24.5516 15 32c9.92709 7.94167 20.8987 13 38 13 c25.6475 0 40.3859 -9.7718 49 -27c3 -6 4 -12 4 -20c0 -18.1878 -12.3353 -29.6677 -25 -36zM160 54l29 28l81 -81l-14 -1c-134 0 -244 104 -255 235h32c8 -80 57 -148 127 -181z"/>
    <glyph glyph-name="ac_unit" unicode="ac_unit" d="M469 277v-42h-89l69 -69l-30 -31l-99 100h-43v-43l100 -99l-31 -30l-69 69v-89h-42v89l-69 -69l-31 30l100 99v43h-43l-99 -100l-30 31l69 69h-89v42h89l-69 69l30 31l99 -100h43v43l-100 99l31 30l69 -69v89h42v-89l69 69l31 -30l-100 -99v-43h43l99 100l30 -31l-69 -69 h89z"/>
    <glyph glyph-name="access_alarm" unicode="access_alarm" d="M256 85c83 0 149 67 149 150s-66 149 -149 149s-149 -66 -149 -149s66 -150 149 -150zM256 427c106 0 192 -86 192 -192s-86 -192 -192 -192s-192 86 -192 192s86 192 192 192zM267 341v-112l85 -50l-16 -26l-101 60v128h32zM168 440l-98 -82l-27 32l98 82zM469 390 l-27 -33l-98 83l27 32z"/>
    <glyph glyph-name="access_alarms" unicode="access_alarms" d="M256 85c83 0 149 67 149 150s-66 149 -149 149s-149 -66 -149 -149s66 -150 149 -150zM256 427c107 0 192 -85 192 -192s-85 -192 -192 -192s-192 85 -192 192s85 192 192 192zM267 341v-113l85 -51l-17 -26l-100 62v128h32zM169 439l-99 -81l-27 32l98 81zM469 390 l-27 -32l-99 84l28 32z"/>
    <glyph glyph-name="access_time" unicode="access_time" d="M267 363v-112l96 -57l-16 -27l-112 68v128h32zM256 85c94 0 171 77 171 171s-77 171 -171 171s-171 -77 -171 -171s77 -171 171 -171zM256 469c118 0 213 -95 213 -213s-95 -213 -213 -213s-213 95 -213 213s95 213 213 213z"/>
    <glyph glyph-name="accessibility" unicode="accessibility" d="M448 320h-128v-277h-43v128h-42v-128h-43v277h-128v43h384v-43zM256 469c23 0 43 -19 43 -42s-20 -43 -43 -43s-43 20 -43 43s20 42 43 42z"/>
    <glyph glyph-name="accessible" unicode="accessible" d="M274 128h44c-10 -49 -53 -85 -105 -85c-59 0 -106 47 -106 106c0 52 36 95 85 105v-44c-25 -9 -43 -33 -43 -61c0 -35 29 -64 64 -64c28 0 52 18 61 43zM213 318c0 29.9891 33.3578 56.5098 64 39h1v-1c5 -2 9 -5 13 -9l28 -31c21 -23 53 -39 86 -39v-42 c-37 0 -78 18 -106 41v-73h64c23 0 42 -20 42 -43v-117h-42v106h-107c-23 0 -43 20 -43 43v126zM213 427c0 24 19 42 43 42s43 -18 43 -42s-19 -43 -43 -43s-43 19 -43 43z"/>
    <glyph glyph-name="account_balance" unicode="account_balance" d="M245 491l203 -107v-43h-405v43zM341 299h64v-150h-64v150zM43 43v64h405v-64h-405zM213 299h64v-150h-64v150zM85 299h64v-150h-64v150z"/>
    <glyph glyph-name="account_balance_wallet" unicode="account_balance_wallet" d="M341 224c18 0 32 14 32 32s-14 32 -32 32s-32 -14 -32 -32s14 -32 32 -32zM256 171v170h213v-170h-213zM448 128v-21c0 -23 -20 -43 -43 -43h-298c-24 0 -43 20 -43 43v298c0 23 19 43 43 43h298c23 0 43 -20 43 -43v-21h-192c-24 0 -43 -20 -43 -43v-170 c0 -23 19 -43 43 -43h192z"/>
    <glyph glyph-name="account_box" unicode="account_box" d="M128 149v-21h256v21c0 43 -85 66 -128 66s-128 -23 -128 -66zM320 320c0 35 -29 64 -64 64s-64 -29 -64 -64s29 -64 64 -64s64 29 64 64zM64 405c0 23 19 43 43 43h298c23 0 43 -20 43 -43v-298c0 -23 -20 -43 -43 -43h-298c-24 0 -43 20 -43 43v298z"/>
    <glyph glyph-name="account_circle" unicode="account_circle" d="M256 102c53 0 100 28 128 69c-1 42 -86 66 -128 66c-43 0 -127 -24 -128 -66c28 -41 75 -69 128 -69zM256 405c-35 0 -64 -29 -64 -64s29 -64 64 -64s64 29 64 64s-29 64 -64 64zM256 469c118 0 213 -95 213 -213s-95 -213 -213 -213s-213 95 -213 213s95 213 213 213z "/>
    <glyph glyph-name="adb" unicode="adb" d="M320 320c12 0 21 9 21 21s-9 22 -21 22s-21 -10 -21 -22s9 -21 21 -21zM192 320c12 0 21 9 21 21s-9 22 -21 22s-21 -10 -21 -22s9 -21 21 -21zM344 419c37 -27 61 -71 61 -120v-22h-298v22c0 49 24 93 61 120l-45 45l18 17l49 -49c20 10 42 16 66 16s46 -6 66 -16l49 49 l18 -17zM107 171v85h298v-85c0 -83 -66 -150 -149 -150s-149 67 -149 150z"/>
    <glyph glyph-name="add" unicode="add" d="M405 235h-128v-128h-42v128h-128v42h128v128h42v-128h128v-42z"/>
    <glyph glyph-name="add_a_photo" unicode="add_a_photo" d="M209 213c0 38 30 69 68 69s69 -31 69 -69s-31 -68 -69 -68s-68 30 -68 68zM277 107c59 0 107 47 107 106s-48 107 -107 107s-106 -48 -106 -107s47 -106 106 -106zM128 299v64h64v64h149l39 -43h68c23 0 43 -20 43 -43v-256c0 -23 -20 -42 -43 -42h-341 c-23 0 -43 19 -43 42v214h64zM64 427v64h43v-64h64v-43h-64v-64h-43v64h-64v43h64z"/>
    <glyph glyph-name="add_alarm" unicode="add_alarm" d="M277 320v-64h64v-43h-64v-64h-42v64h-64v43h64v64h42zM256 85c83 0 149 67 149 150s-66 149 -149 149s-149 -66 -149 -149s66 -150 149 -150zM256 427c106 0 192 -86 192 -192s-86 -192 -192 -192s-192 86 -192 192s86 192 192 192zM469 390l-27 -33l-98 83l27 32z M168 440l-98 -82l-27 32l98 82z"/>
    <glyph glyph-name="add_alert" unicode="add_alert" d="M341 234v43h-64v64h-42v-64h-64v-43h64v-64h42v64h64zM403 153l45 -45v-23h-384v23l45 45v124c0 69 48 128 113 143v15c0 19 15 34 34 34s34 -15 34 -34v-15c65 -15 113 -74 113 -143v-124zM214 64h84c0 -23 -19 -43 -42 -43s-42 20 -42 43z"/>
    <glyph glyph-name="add_box" unicode="add_box" d="M363 235v42h-86v86h-42v-86h-86v-42h86v-86h42v86h86zM405 448c23 0 43 -20 43 -43v-298c0 -23 -20 -43 -43 -43h-298c-24 0 -43 20 -43 43v298c0 23 19 43 43 43h298z"/>
    <glyph glyph-name="add_circle" unicode="add_circle" d="M363 235v42h-86v86h-42v-86h-86v-42h86v-86h42v86h86zM256 469c118 0 213 -95 213 -213s-95 -213 -213 -213s-213 95 -213 213s95 213 213 213z"/>
    <glyph glyph-name="add_circle_outline" unicode="add_circle_outline" d="M256 85c94 0 171 77 171 171s-77 171 -171 171s-171 -77 -171 -171s77 -171 171 -171zM256 469c118 0 213 -95 213 -213s-95 -213 -213 -213s-213 95 -213 213s95 213 213 213zM277 363v-86h86v-42h-86v-86h-42v86h-86v42h86v86h42z"/>
    <glyph glyph-name="add_location" unicode="add_location" d="M341 299v42h-64v64h-42v-64h-64v-42h64v-64h42v64h64zM256 469c82 0 149 -67 149 -149c0 -112 -149 -277 -149 -277s-149 165 -149 277c0 82 67 149 149 149z"/>
    <glyph glyph-name="add_shopping_cart" unicode="add_shopping_cart" d="M153 197c0 -3 2 -5 5 -5h247v-43h-256c-23 0 -42 20 -42 43c0 7 2 14 5 20l29 53l-77 162h-43v42h70c13.5017 -28.165 26.8327 -56.5006 40 -85c17.0313 -35.6353 33.8016 -71.5317 51 -107h150c27.393 49.9404 55.2665 99.4002 82 150l37 -21l-82 -149 c-7 -13 -21 -22 -37 -22h-159l-19 -35zM363 128c23 0 42 -20 42 -43s-19 -42 -42 -42s-43 19 -43 42s20 43 43 43zM149 128c23 0 43 -20 43 -43s-20 -42 -43 -42s-42 19 -42 42s19 43 42 43zM235 320v64h-64v43h64v64h42v-64h64v-43h-64v-64h-42z"/>
    <glyph glyph-name="add_to_photos" unicode="add_to_photos" d="M405 277v43h-85v85h-43v-85h-85v-43h85v-85h43v85h85zM427 469c23 0 42 -19 42 -42v-256c0 -23 -19 -43 -42 -43h-256c-23 0 -43 20 -43 43v256c0 23 20 42 43 42h256zM85 384v-299h299v-42h-299c-23 0 -42 19 -42 42v299h42z"/>
    <glyph glyph-name="add_to_queue" unicode="add_to_queue" d="M341 299v-43h-64v-64h-42v64h-64v43h64v64h42v-64h64zM448 149v256h-384v-256h384zM448 448c23 0 43 -19 43 -43l-1 -256c0 -23 -19 -42 -42 -42h-107v-43h-170v43h-107c-24 0 -43 19 -43 42v256c0 24 19 43 43 43h384z"/>
    <glyph glyph-name="adjust" unicode="adjust" d="M320 256c0 -35 -29 -64 -64 -64s-64 29 -64 64s29 64 64 64s64 -29 64 -64zM256 85c94 0 171 77 171 171s-77 171 -171 171s-171 -77 -171 -171s77 -171 171 -171zM256 469c118 0 213 -95 213 -213s-95 -213 -213 -213s-213 95 -213 213s95 213 213 213z"/>
    <glyph glyph-name="airline_seat_flat" unicode="airline_seat_flat" d="M152 254c-25 -25 -65 -26 -90 -1s-26 65 -1 90s65 26 90 1s26 -65 1 -90zM43 213h426v-42h-128v-43h-170v43h-128v42zM469 277v-42h-277v128h192c47 0 85 -39 85 -86z"/>
    <glyph glyph-name="airline_seat_flat_angled" unicode="airline_seat_flat_angled" d="M156 294c-32 -15 -71 -2 -86 30s-2 71 30 86s71 2 86 -30s2 -71 -30 -86zM32 253l15 40l405 -146l-14 -40l-97 34v-34h-170v96zM475 207l-15 -40l-264 95l45 121l182 -66c45 -16 68 -65 52 -110z"/>
    <glyph glyph-name="airline_seat_individual_suite" unicode="airline_seat_individual_suite" d="M405 363c47 0 86 -39 86 -86v-128h-470v214h43v-150h171v150h170zM149 235c-35 0 -64 29 -64 64s29 64 64 64s64 -29 64 -64s-29 -64 -64 -64z"/>
    <glyph glyph-name="airline_seat_legroom_extra" unicode="airline_seat_legroom_extra" d="M487 144c9 -16 1 -36 -15 -44l-79 -36l-73 149h-149c-35 0 -64 29 -64 64v171h128v-128h75c16 0 31 -9 38 -24l72 -149l24 11c16 7 35 1 43 -14zM85 256c0 -35 29 -64 64 -64h128v-43h-128c-59 0 -106 48 -106 107v192h42v-192z"/>
    <glyph glyph-name="airline_seat_legroom_normal" unicode="airline_seat_legroom_normal" d="M437 128c18 0 32 -14 32 -32s-14 -32 -32 -32h-96v149h-149c-35 0 -64 29 -64 64v171h128v-128h107c23 0 42 -20 42 -43v-149h32zM107 256c0 -35 29 -64 64 -64h128v-43h-128c-59 0 -107 48 -107 107v192h43v-192z"/>
    <glyph glyph-name="airline_seat_legroom_reduced" unicode="airline_seat_legroom_reduced" d="M107 256c0 -35 29 -64 64 -64h85v-43h-85c-59 0 -107 48 -107 107v192h43v-192zM426 102c4 -20 -11 -38 -31 -38h-96v64l21 85h-128c-35 0 -64 29 -64 64v171h128v-128h107c23 0 42 -20 42 -43l-42 -149h30c16 0 30 -11 33 -26z"/>
    <glyph glyph-name="airline_seat_recline_extra" unicode="airline_seat_recline_extra" d="M346 192l123 -96l-32 -32l-81 64h-146c-31 0 -57 22 -63 52l-29 126c-4 26 13 51 39 56h1c15.1794 2.16848 28.3139 -2.05108 37 -9l35 -27c27 -21 65 -34 100 -27v-46c-40 -7 -76 7 -110 26l22 -87h104zM341 107v-43h-150c-53 0 -98 38 -106 90l-42 209h42l42 -202 c5 -31 32 -54 64 -54h150zM114 392c-19 14 -23 40 -10 59s40 24 59 11c19 -14 24 -41 11 -60c-14 -19 -41 -23 -60 -10z"/>
    <glyph glyph-name="airline_seat_recline_normal" unicode="airline_seat_recline_normal" d="M427 84l-31 -31l-75 75h-108c-35 0 -64 29 -64 64v123c0 26 22 48 48 48h1c14.8367 0 27.399 -8.39902 35 -16l30 -33c23 -25 65 -43 100 -43v-47c-41 0 -88 22 -118 47v-79h74zM128 171c0 -35 29 -64 64 -64h128v-43h-128c-59 0 -107 48 -107 107v192h43v-192zM162 397 c-17 17 -17 43 0 60s43 17 60 0s17 -43 0 -60s-43 -17 -60 0z"/>
    <glyph glyph-name="airplanemode_active" unicode="airplanemode_active" d="M217 320zM448 171l-171 53v-117l43 -32v-32l-75 21l-74 -21v32l42 32v117l-170 -53v42l170 107v117c0 18 14 32 32 32s32 -14 32 -32v-117l171 -107v-42z"/>
    <glyph glyph-name="airplanemode_inactive" unicode="airplanemode_inactive" d="M64 400l27 27l336 -336l-27 -27l-123 122v-79l43 -32v-32l-75 21l-74 -21v32l42 32v117l-170 -53v42l127 80zM277 320l171 -107v-42l-68 21l-167 167v78c0 18 14 32 32 32s32 -14 32 -32v-117z"/>
    <glyph glyph-name="airplay" unicode="airplay" d="M448 448c23 0 43 -20 43 -43v-256c0 -23 -20 -42 -43 -42h-85v42h85v256h-384v-256h85v-42h-85c-23 0 -43 19 -43 42v256c0 23 20 43 43 43h384zM128 43l128 128l128 -128h-256z"/>
    <glyph glyph-name="airport_shuttle" unicode="airport_shuttle" d="M320 277h107l-86 86h-21v-86zM373 139c18 0 32 14 32 32s-14 32 -32 32s-32 -14 -32 -32s14 -32 32 -32zM277 277v86h-85v-86h85zM128 139c18 0 32 14 32 32s-14 32 -32 32s-32 -14 -32 -32s14 -32 32 -32zM64 277h85v86h-85v-86zM363 405l128 -128v-106h-54 c0 -35 -29 -64 -64 -64s-64 29 -64 64h-117c0 -35 -29 -64 -64 -64s-64 29 -64 64h-43v192c0 24 20 42 43 42h299z"/>
    <glyph glyph-name="alarm" unicode="alarm" d="M256 85c83 0 149 67 149 150s-66 149 -149 149s-149 -66 -149 -149s66 -150 149 -150zM256 427c106 0 192 -86 192 -192s-86 -192 -192 -192s-192 86 -192 192s86 192 192 192zM267 341v-112l85 -50l-16 -26l-101 60v128h32zM168 440l-98 -82l-27 32l98 82zM469 390 l-27 -33l-98 83l27 32z"/>
    <glyph glyph-name="alarm_add" unicode="alarm_add" d="M277 320v-64h64v-43h-64v-64h-42v64h-64v43h64v64h42zM256 85c83 0 149 67 149 150s-66 149 -149 149s-149 -66 -149 -149s66 -150 149 -150zM256 427c106 0 192 -86 192 -192s-86 -192 -192 -192s-192 86 -192 192s86 192 192 192zM469 390l-27 -33l-98 83l27 32z M168 440l-98 -82l-27 32l98 82z"/>
    <glyph glyph-name="alarm_off" unicode="alarm_off" d="M171 442l-18 -15l-31 30l19 15zM351 120l-210 210c-21 -26 -34 -59 -34 -95c0 -83 66 -150 149 -150c36 0 69 14 95 35zM62 463c131.276 -131.057 262.677 -261.99 394 -393l-27 -27l-47 47c-34 -29 -78 -47 -126 -47c-106 0 -192 86 -192 192c0 48 18 91 47 125l-17 17 l-24 -20l-30 31l24 19l-29 29zM469 390l-27 -33l-98 83l27 32zM256 384c-18 0 -35 -3 -51 -9l-33 32c25 12 54 20 84 20c106 0 192 -86 192 -192c0 -30 -7 -59 -19 -84l-33 32c6 16 9 34 9 52c0 83 -66 149 -149 149z"/>
    <glyph glyph-name="alarm_on" unicode="alarm_on" d="M225 202l105 106l23 -23l-128 -128l-68 68l22 22zM256 85c83 0 149 67 149 150s-66 149 -149 149s-149 -66 -149 -149s66 -150 149 -150zM256 427c106 0 192 -86 192 -192s-86 -192 -192 -192s-192 86 -192 192s86 192 192 192zM168 440l-98 -82l-27 32l98 82zM469 390 l-27 -33l-98 83l27 32z"/>
    <glyph glyph-name="album" unicode="album" d="M256 277c12 0 21 -9 21 -21s-9 -21 -21 -21s-21 9 -21 21s9 21 21 21zM256 160c53 0 96 43 96 96s-43 96 -96 96s-96 -43 -96 -96s43 -96 96 -96zM256 469c118 0 213 -95 213 -213s-95 -213 -213 -213s-213 95 -213 213s95 213 213 213z"/>
    <glyph glyph-name="all_inclusive" unicode="all_inclusive" d="M397 371c64 0 115 -52 115 -115s-51 -115 -115 -115c-31 0 -60 12 -82 34l-27 24l32 28l25 -21c15 -15 33 -22 52 -22c40 0 72 32 72 72s-32 72 -72 72c-19 0 -37 -7 -51 -21c-30.1331 -26.5336 -60.4726 -52.8608 -90 -80l-60 -53c-21 -21 -50 -33 -81 -33 c-64 0 -115 52 -115 115s51 115 115 115c31 0 60 -12 82 -34l27 -24l-33 -28l-24 21c-15 15 -33 22 -52 22c-40 0 -72 -32 -72 -72s32 -72 72 -72c19 0 37 7 51 21c30.1331 26.5336 60.4726 52.8608 90 80l60 53c21 21 50 33 81 33z"/>
    <glyph glyph-name="all_out" unicode="all_out" d="M343 170c45 45 45 120 0 165s-120 45 -165 0s-45 -120 0 -165s120 -45 165 0zM366 358c58 -58 58 -153 0 -211s-153 -58 -211 0s-58 153 0 211s153 58 211 0zM90 338v85h85zM175 82h-85v85zM431 167v-85h-85zM346 423h85v-85z"/>
    <glyph glyph-name="android" unicode="android" d="M320 405v22h-21v-22h21zM213 405v22h-21v-22h21zM331 466c32 -23 53 -61 53 -103h-256c0 42 20 80 52 103l-28 28c-4 4 -4 11 0 15s11 4 15 0l32 -32c17 9 37 14 57 14s39 -5 56 -14l32 32c4 4 11 4 15 0s4 -11 0 -15zM437 341c18 0 32 -14 32 -32v-149 c0 -18 -14 -32 -32 -32s-32 14 -32 32v149c0 18 14 32 32 32zM75 341c18 0 32 -14 32 -32v-149c0 -18 -14 -32 -32 -32s-32 14 -32 32v149c0 18 14 32 32 32zM128 128v213h256v-213c0 -12 -9 -21 -21 -21h-22v-75c0 -18 -14 -32 -32 -32s-32 14 -32 32v75h-42v-75 c0 -18 -14 -32 -32 -32s-32 14 -32 32v75h-22c-12 0 -21 9 -21 21z"/>
    <glyph glyph-name="announcement" unicode="announcement" d="M277 192v43h-42v-43h42zM277 277v128h-42v-128h42zM427 469c23 0 42 -19 42 -42v-256c0 -23 -19 -43 -42 -43h-299l-85 -85v384c0 23 19 42 42 42h342z"/>
    <glyph glyph-name="apps" unicode="apps" d="M341 85v86h86v-86h-86zM341 213v86h86v-86h-86zM213 341v86h86v-86h-86zM341 427h86v-86h-86v86zM213 213v86h86v-86h-86zM85 213v86h86v-86h-86zM85 85v86h86v-86h-86zM213 85v86h86v-86h-86zM85 341v86h86v-86h-86z"/>
    <glyph glyph-name="archive" unicode="archive" d="M109 405h294l-20 22h-256zM256 139l117 117h-74v43h-86v-43h-74zM438 400c6 -7 10 -17 10 -27v-266c0 -23 -20 -43 -43 -43h-298c-23 0 -43 20 -43 43v266c0 10 4 20 10 27l29 36c6 7 15 12 25 12h256c10 0 19 -5 25 -12z"/>
    <glyph glyph-name="arrow_back" unicode="arrow_back" d="M427 277v-42h-260l119 -120l-30 -30l-171 171l171 171l30 -30l-119 -120h260z"/>
    <glyph glyph-name="arrow_downward" unicode="arrow_downward" d="M427 256l-171 -171l-171 171l31 30l119 -119v260h42v-260l120 119z"/>
    <glyph glyph-name="arrow_drop_down" unicode="arrow_drop_down" d="M149 299h214l-107 -107z"/>
    <glyph glyph-name="arrow_drop_down_circle" unicode="arrow_drop_down_circle" d="M256 213l85 86h-170zM256 469c118 0 213 -95 213 -213s-95 -213 -213 -213s-213 95 -213 213s95 213 213 213z"/>
    <glyph glyph-name="arrow_drop_up" unicode="arrow_drop_up" d="M149 213l107 107l107 -107h-214z"/>
    <glyph glyph-name="arrow_forward" unicode="arrow_forward" d="M256 427l171 -171l-171 -171l-30 30l119 120h-260v42h260l-119 120z"/>
    <glyph glyph-name="arrow_upward" unicode="arrow_upward" d="M85 256l171 171l171 -171l-31 -30l-119 119v-260h-42v260l-120 -119z"/>
    <glyph glyph-name="art_track" unicode="art_track" d="M224 192l-48 64l-37 -48l-27 32l-37 -48h149zM256 320v-128c0 -23 -20 -43 -43 -43h-128c-23 0 -42 20 -42 43v128c0 23 19 43 42 43h128c23 0 43 -20 43 -43zM299 149v43h170v-43h-170zM469 363v-43h-170v43h170zM469 235h-170v42h170v-42z"/>
    <glyph glyph-name="aspect_ratio" unicode="aspect_ratio" d="M448 106v300h-384v-300h384zM448 448c23 0 43 -20 43 -43v-298c0 -23 -20 -43 -43 -43h-384c-23 0 -43 20 -43 43v298c0 23 20 43 43 43h384zM149 320v-64h-42v107h106v-43h-64zM405 256v-107h-106v43h64v64h42z"/>
    <glyph glyph-name="assessment" unicode="assessment" d="M363 149v86h-43v-86h43zM277 149v214h-42v-214h42zM192 149v150h-43v-150h43zM405 448c23 0 43 -20 43 -43v-298c0 -23 -20 -43 -43 -43h-298c-23 0 -43 20 -43 43v298c0 23 20 43 43 43h298z"/>
    <glyph glyph-name="assignment" unicode="assignment" d="M363 320v43h-214v-43h214zM363 235v42h-214v-42h214zM299 149v43h-150v-43h150zM256 448c-12 0 -21 -9 -21 -21s9 -22 21 -22s21 10 21 22s-9 21 -21 21zM405 448c23 0 43 -20 43 -43v-298c0 -23 -20 -43 -43 -43h-298c-23 0 -43 20 -43 43v298c0 23 20 43 43 43h89 c9 25 32 43 60 43s51 -18 60 -43h89z"/>
    <glyph glyph-name="assignment_ind" unicode="assignment_ind" d="M384 107v30c0 43 -85 66 -128 66s-128 -23 -128 -66v-30h256zM256 363c-35 0 -64 -29 -64 -64s29 -64 64 -64s64 29 64 64s-29 64 -64 64zM256 448c-12 0 -21 -9 -21 -21s9 -22 21 -22s21 10 21 22s-9 21 -21 21zM405 448c23 0 43 -20 43 -43v-298c0 -23 -20 -43 -43 -43 h-298c-23 0 -43 20 -43 43v298c0 23 20 43 43 43h89c9 25 32 43 60 43s51 -18 60 -43h89z"/>
    <glyph glyph-name="assignment_late" unicode="assignment_late" d="M256 405c12 0 21 10 21 22s-9 21 -21 21s-21 -9 -21 -21s9 -22 21 -22zM277 213v128h-42v-128h42zM277 128v43h-42v-43h42zM405 448c23 0 43 -20 43 -43v-298c0 -23 -20 -43 -43 -43h-298c-23 0 -43 20 -43 43v298c0 23 20 43 43 43h89c9 25 32 43 60 43s51 -18 60 -43 h89z"/>
    <glyph glyph-name="assignment_return" unicode="assignment_return" d="M341 192v85h-85v64l-107 -106l107 -107v64h85zM256 448c-12 0 -21 -9 -21 -21s9 -22 21 -22s21 10 21 22s-9 21 -21 21zM405 448c23 0 43 -20 43 -43v-298c0 -23 -20 -43 -43 -43h-298c-23 0 -43 20 -43 43v298c0 23 20 43 43 43h89c9 25 32 43 60 43s51 -18 60 -43h89z "/>
    <glyph glyph-name="assignment_returned" unicode="assignment_returned" d="M256 128l107 107h-64v85h-86v-85h-64zM256 448c-12 0 -21 -9 -21 -21s9 -22 21 -22s21 10 21 22s-9 21 -21 21zM405 448c23 0 43 -20 43 -43v-298c0 -23 -20 -43 -43 -43h-298c-23 0 -43 20 -43 43v298c0 23 20 43 43 43h89c9 25 32 43 60 43s51 -18 60 -43h89z"/>
    <glyph glyph-name="assignment_turned_in" unicode="assignment_turned_in" d="M213 149l171 171l-30 30l-141 -140l-55 55l-30 -30zM256 448c-12 0 -21 -9 -21 -21s9 -22 21 -22s21 10 21 22s-9 21 -21 21zM405 448c23 0 43 -20 43 -43v-298c0 -23 -20 -43 -43 -43h-298c-23 0 -43 20 -43 43v298c0 23 20 43 43 43h89c9 25 32 43 60 43s51 -18 60 -43 h89z"/>
    <glyph glyph-name="assistant" unicode="assistant" d="M296 237l88 40l-88 40l-40 88l-40 -88l-88 -40l88 -40l40 -88zM405 469c23 0 43 -19 43 -42v-299c0 -23 -20 -43 -43 -43h-85l-64 -64l-64 64h-85c-23 0 -43 20 -43 43v299c0 23 20 42 43 42h298z"/>
    <glyph glyph-name="assistant_photo" unicode="assistant_photo" d="M307 384h120v-213h-150l-8 42h-120v-149h-42v363h192z"/>
    <glyph glyph-name="attach_file" unicode="attach_file" d="M352 384h32v-245c0 -65 -52 -118 -117 -118s-118 53 -118 118v266c0 47 39 86 86 86s85 -39 85 -86v-224c0 -29 -24 -53 -53 -53s-54 24 -54 53v203h32v-203c0 -12 10 -21 22 -21s21 9 21 21v224c0 29 -24 54 -53 54s-54 -25 -54 -54v-266c0 -47 39 -86 86 -86 s85 39 85 86v245z"/>
    <glyph glyph-name="attach_money" unicode="attach_money" d="M252 279c48 -13 100 -32 100 -93c0 -44 -33 -68 -75 -76v-46h-64v46c-41 9 -75 35 -78 82h47c2 -25 19 -45 63 -45c47 0 58 23 58 38c0 20 -11 39 -64 52c-60 14 -100 39 -100 88c0 41 33 68 74 77v46h64v-47c45 -11 68 -44 69 -81h-47c-1 27 -16 45 -54 45 c-36 0 -57 -17 -57 -40c0 -20 16 -33 64 -46z"/>
    <glyph glyph-name="attachment" unicode="attachment" d="M43 245c0 65 52 118 117 118h224c47 0 85 -39 85 -86s-38 -85 -85 -85h-181c-29 0 -54 24 -54 53s25 54 54 54h160v-43h-162c-12 0 -12 -21 0 -21h183c23 0 43 19 43 42s-20 43 -43 43h-224c-41 0 -75 -34 -75 -75s34 -74 75 -74h203v-43h-203c-65 0 -117 52 -117 117z "/>
    <glyph glyph-name="audiotrack" unicode="audiotrack" d="M256 448h149v-64h-85v-235h-1c-5 -48 -46 -85 -95 -85c-53 0 -96 43 -96 96s43 96 96 96c11 0 22 -2 32 -6v198z"/>
    <glyph glyph-name="autorenew" unicode="autorenew" d="M400 347c17 -26 27 -58 27 -91c0 -94 -77 -171 -171 -171v-64l-85 86l85 85v-64c71 0 128 57 128 128c0 22 -6 42 -15 60zM256 384c-71 0 -128 -57 -128 -128c0 -22 5 -42 15 -60l-31 -31c-17 26 -27 58 -27 91c0 94 77 171 171 171v64l85 -86l-85 -85v64z"/>
    <glyph glyph-name="av_timer" unicode="av_timer" d="M128 256c0 12 9 21 21 21s22 -9 22 -21s-10 -21 -22 -21s-21 9 -21 21zM384 256c0 -12 -9 -21 -21 -21s-22 9 -22 21s10 21 22 21s21 -9 21 -21zM235 448h21c106 0 192 -86 192 -192s-86 -192 -192 -192s-192 86 -192 192c0 63 30 118 77 153v1l145 -145l-30 -30 l-116 115c-21 -26 -33 -58 -33 -94c0 -83 66 -149 149 -149s149 66 149 149c0 75 -56 138 -128 148v-41h-42v85zM235 149c0 12 9 22 21 22s21 -10 21 -22s-9 -21 -21 -21s-21 9 -21 21z"/>
    <glyph glyph-name="backspace" unicode="backspace" d="M405 179l-76 77l76 77l-30 30l-76 -77l-77 77l-30 -30l77 -77l-77 -77l30 -30l77 77l76 -77zM469 448c23 0 43 -20 43 -43v-298c0 -23 -20 -43 -43 -43h-320c-15 0 -26 8 -34 19l-115 173l115 173c8 11 19 19 34 19h320z"/>
    <glyph glyph-name="backup" unicode="backup" d="M299 235h64l-107 106l-107 -106h64v-86h86v86zM413 298c55 -4 99 -50 99 -106c0 -59 -48 -107 -107 -107h-277c-71 0 -128 57 -128 128c0 66 50 120 114 127c27 51 80 87 142 87c78 0 142 -55 157 -129z"/>
    <glyph glyph-name="battery_alert" unicode="battery_alert" d="M277 213v107h-42v-107h42zM277 128v43h-42v-43h42zM334 427c16 0 29 -13 29 -29v-327c0 -16 -13 -28 -29 -28h-156c-16 0 -29 12 -29 28v327c0 16 13 29 29 29h35v42h86v-42h35z"/>
    <glyph glyph-name="battery_charging_full" unicode="battery_charging_full" d="M235 85l85 160h-43v118l-85 -160h43v-118zM334 427c16 0 29 -13 29 -29v-327c0 -16 -13 -28 -29 -28h-156c-16 0 -29 12 -29 28v327c0 16 13 29 29 29h35v42h86v-42h35z"/>
    <glyph glyph-name="battery_full" unicode="battery_full" d="M334 427c16 0 29 -13 29 -29v-327c0 -16 -13 -28 -29 -28h-156c-16 0 -29 12 -29 28v327c0 16 13 29 29 29h35v42h86v-42h35z"/>
    <glyph glyph-name="battery_std" unicode="battery_std" d="M334 427c16 0 29 -13 29 -29v-327c0 -16 -13 -28 -29 -28h-156c-16 0 -29 12 -29 28v327c0 16 13 29 29 29h35v42h86v-42h35z"/>
    <glyph glyph-name="battery_unknown" unicode="battery_unknown" d="M305 241c9 9 15 22 15 36c0 35 -29 64 -64 64s-64 -29 -64 -64h32c0 18 14 32 32 32s32 -14 32 -32c0 -9 -3 -16 -9 -22l-20 -20c-10 -10 -20 -25 -20 -43h34c0 10 8 24 18 34c6 6 14 15 14 15zM276 129v41h-40v-41h40zM334 427c16 0 29 -13 29 -29v-327 c0 -16 -13 -28 -29 -28h-156c-16 0 -29 12 -29 28v327c0 16 13 29 29 29h35v42h86v-42h35z"/>
    <glyph glyph-name="beach_access" unicode="beach_access" d="M372 324c-66.8504 66.8504 -159.585 88.9016 -243.437 61.1868c63.7841 7.27512 145.981 -25.7308 212.437 -92.1868l-122 -122c-66.456 66.456 -99.4619 148.653 -92.1868 212.437c-27.7148 -83.8524 -5.66368 -176.587 61.1868 -243.437l-61 -61 c-83.9541 83.9541 -84 220.85 -0.137673 304.862c0.129398 1.10582 0.166618 1.14572 1.27547 1.27547c84.012 83.8623 220.908 83.8164 304.862 -0.137673zM280 201l31 31l137 -138l-31 -30z"/>
    <glyph glyph-name="beenhere" unicode="beenhere" d="M213 171l192 192l-30 30l-162 -162l-76 76l-30 -30zM405 491c23 0 43 -20 43 -43v-276c0 -15 -8 -27 -19 -35l-173 -116l-173 116c-11 8 -19 20 -19 35v276c0 23 20 43 43 43h298z"/>
    <glyph glyph-name="block" unicode="block" d="M256 85c94 0 171 77 171 171c0 39 -13 76 -36 105l-240 -240c29 -23 66 -36 105 -36zM85 256c0 -39 13 -76 36 -105l240 240c-29 23 -66 36 -105 36c-94 0 -171 -77 -171 -171zM256 469c118 0 213 -95 213 -213s-95 -213 -213 -213s-213 95 -213 213s95 213 213 213z"/>
    <glyph glyph-name="bluetooth" unicode="bluetooth" d="M317 164l-40 41v-81zM277 388v-81l40 41zM378 348l-92 -92l92 -92l-122 -121h-21v162l-98 -98l-30 30l119 119l-119 119l30 30l98 -98v162h21z"/>
    <glyph glyph-name="bluetooth_audio" unicode="bluetooth_audio" d="M275 164l-40 41v-81zM235 388v-81l40 41zM335 348l-92 -92l92 -92l-122 -121h-21v162l-98 -98l-30 30l119 119l-119 119l30 30l98 -98v162h21zM417 369c20 -32 31 -71 31 -111c0 -42 -12 -80 -33 -113l-25 25c13 26 21 55 21 86s-8 60 -21 86zM304 256l49 49 c6 -15 10 -32 10 -49s-4 -35 -10 -50z"/>
    <glyph glyph-name="bluetooth_connected" unicode="bluetooth_connected" d="M405 299l43 -43l-43 -43l-42 43zM317 164l-40 41v-81zM277 388v-81l40 41zM378 348l-92 -92l92 -92l-122 -121h-21v162l-98 -98l-30 30l119 119l-119 119l30 30l98 -98v162h21zM149 256l-42 -43l-43 43l43 43z"/>
    <glyph glyph-name="bluetooth_disabled" unicode="bluetooth_disabled" d="M277 124l40 40l-40 41v-81zM115 427l312 -312l-30 -30l-49 49l-92 -91h-21v162l-98 -98l-30 30l119 119l-141 141zM277 388v-69l-42 43v107h21l122 -121l-65 -65l-30 30l34 35z"/>
    <glyph glyph-name="bluetooth_searching" unicode="bluetooth_searching" d="M275 164l-40 41v-81zM235 388v-81l40 41zM335 348l-92 -92l92 -92l-122 -121h-21v162l-98 -98l-30 30l119 119l-119 119l30 30l98 -98v162h21zM417 369c20 -32 31 -71 31 -111c0 -42 -12 -80 -33 -113l-25 25c13 26 21 55 21 86s-8 60 -21 86zM304 256l49 49 c6 -15 10 -32 10 -49s-4 -35 -10 -50z"/>
    <glyph glyph-name="blur_circular" unicode="blur_circular" d="M299 235c12 0 21 -10 21 -22s-9 -21 -21 -21s-22 9 -22 21s10 22 22 22zM299 160c6 0 10 -5 10 -11s-4 -10 -10 -10s-11 4 -11 10s5 11 11 11zM256 85c94 0 171 77 171 171s-77 171 -171 171s-171 -77 -171 -171s77 -171 171 -171zM256 469c118 0 213 -95 213 -213 s-95 -213 -213 -213s-213 95 -213 213s95 213 213 213zM363 309c6 0 10 -4 10 -10s-4 -11 -10 -11s-11 5 -11 11s5 10 11 10zM363 224c6 0 10 -5 10 -11s-4 -10 -10 -10s-11 4 -11 10s5 11 11 11zM299 352c-6 0 -11 5 -11 11s5 10 11 10s10 -4 10 -10s-4 -11 -10 -11z M299 320c12 0 21 -9 21 -21s-9 -22 -21 -22s-22 10 -22 22s10 21 22 21zM213 352c-6 0 -10 5 -10 11s4 10 10 10s11 -4 11 -10s-5 -11 -11 -11zM149 224c6 0 11 -5 11 -11s-5 -10 -11 -10s-10 4 -10 10s4 11 10 11zM213 160c6 0 11 -5 11 -11s-5 -10 -11 -10s-10 4 -10 10 s4 11 10 11zM149 309c6 0 11 -4 11 -10s-5 -11 -11 -11s-10 5 -10 11s4 10 10 10zM213 235c12 0 22 -10 22 -22s-10 -21 -22 -21s-21 9 -21 21s9 22 21 22zM213 320c12 0 22 -9 22 -21s-10 -22 -22 -22s-21 10 -21 22s9 21 21 21z"/>
    <glyph glyph-name="blur_linear" unicode="blur_linear" d="M277 149c-12 0 -21 10 -21 22s9 21 21 21s22 -9 22 -21s-10 -22 -22 -22zM277 235c-12 0 -21 9 -21 21s9 21 21 21s22 -9 22 -21s-10 -21 -22 -21zM277 320c-12 0 -21 9 -21 21s9 22 21 22s22 -10 22 -22s-10 -21 -22 -21zM363 245c-6 0 -11 5 -11 11s5 11 11 11 s10 -5 10 -11s-4 -11 -10 -11zM363 331c-6 0 -11 4 -11 10s5 11 11 11s10 -5 10 -11s-4 -10 -10 -10zM64 448h384v-43h-384v43zM363 160c-6 0 -11 5 -11 11s5 10 11 10s10 -4 10 -10s-4 -11 -10 -11zM192 149c-12 0 -21 10 -21 22s9 21 21 21s21 -9 21 -21s-9 -22 -21 -22z M107 224c-18 0 -32 14 -32 32s14 32 32 32s32 -14 32 -32s-14 -32 -32 -32zM107 309c-18 0 -32 14 -32 32s14 32 32 32s32 -14 32 -32s-14 -32 -32 -32zM64 64v43h384v-43h-384zM192 320c-12 0 -21 9 -21 21s9 22 21 22s21 -10 21 -22s-9 -21 -21 -21zM192 235 c-12 0 -21 9 -21 21s9 21 21 21s21 -9 21 -21s-9 -21 -21 -21zM107 139c-18 0 -32 14 -32 32s14 32 32 32s32 -14 32 -32s-14 -32 -32 -32z"/>
    <glyph glyph-name="blur_off" unicode="blur_off" d="M64 224c6 0 11 -5 11 -11s-5 -10 -11 -10s-11 4 -11 10s5 11 11 11zM128 149c12 0 21 -9 21 -21s-9 -21 -21 -21s-21 9 -21 21s9 21 21 21zM213 75c6 0 11 -5 11 -11s-5 -11 -11 -11s-10 5 -10 11s4 11 10 11zM64 309c6 0 11 -4 11 -10s-5 -11 -11 -11s-11 5 -11 11 s5 10 11 10zM128 235c12 0 21 -10 21 -22s-9 -21 -21 -21s-21 9 -21 21s9 22 21 22zM448 224c6 0 11 -5 11 -11s-5 -10 -11 -10s-11 4 -11 10s5 11 11 11zM213 149c12 0 22 -9 22 -21s-10 -21 -22 -21s-21 9 -21 21s9 21 21 21zM53 400l27 27l347 -347l-28 -27l-80 81 c1 -2 1 -4 1 -6c0 -12 -9 -21 -21 -21s-22 9 -22 21s10 21 22 21c2 0 4 0 6 -1l-60 60c-2 -15 -16 -27 -32 -27c-18 0 -32 14 -32 32c0 16 12 30 27 32l-60 60c1 -2 1 -4 1 -6c0 -12 -9 -22 -21 -22s-21 10 -21 22s9 21 21 21l6 -1zM299 75c6 0 10 -5 10 -11s-4 -11 -10 -11 s-11 5 -11 11s5 11 11 11zM384 363c-12 0 -21 9 -21 21s9 21 21 21s21 -9 21 -21s-9 -21 -21 -21zM384 277c-12 0 -21 10 -21 22s9 21 21 21s21 -9 21 -21s-9 -22 -21 -22zM384 192c-12 0 -21 9 -21 21s9 22 21 22s21 -10 21 -22s-9 -21 -21 -21zM213 363 c-12 0 -21 9 -21 21s9 21 21 21s22 -9 22 -21s-10 -21 -22 -21zM448 288c-6 0 -11 5 -11 11s5 10 11 10s11 -4 11 -10s-5 -11 -11 -11zM213 437c-6 0 -10 5 -10 11s4 11 10 11s11 -5 11 -11s-5 -11 -11 -11zM299 437c-6 0 -11 5 -11 11s5 11 11 11s10 -5 10 -11 s-4 -11 -10 -11zM294 267c-14 2 -25 13 -27 27v5c0 18 14 32 32 32s32 -14 32 -32s-14 -32 -32 -32h-5zM299 363c-12 0 -22 9 -22 21s10 21 22 21s21 -9 21 -21s-9 -21 -21 -21z"/>
    <glyph glyph-name="blur_on" unicode="blur_on" d="M299 331c18 0 32 -14 32 -32s-14 -32 -32 -32s-32 14 -32 32s14 32 32 32zM299 245c18 0 32 -14 32 -32s-14 -32 -32 -32s-32 14 -32 32s14 32 32 32zM213 149c12 0 22 -9 22 -21s-10 -21 -22 -21s-21 9 -21 21s9 21 21 21zM213 331c18 0 32 -14 32 -32s-14 -32 -32 -32 s-32 14 -32 32s14 32 32 32zM299 75c6 0 10 -5 10 -11s-4 -11 -10 -11s-11 5 -11 11s5 11 11 11zM299 149c12 0 21 -9 21 -21s-9 -21 -21 -21s-22 9 -22 21s10 21 22 21zM448 224c6 0 11 -5 11 -11s-5 -10 -11 -10s-11 4 -11 10s5 11 11 11zM384 405c12 0 21 -9 21 -21 s-9 -21 -21 -21s-21 9 -21 21s9 21 21 21zM384 320c12 0 21 -9 21 -21s-9 -22 -21 -22s-21 10 -21 22s9 21 21 21zM384 149c12 0 21 -9 21 -21s-9 -21 -21 -21s-21 9 -21 21s9 21 21 21zM384 235c12 0 21 -10 21 -22s-9 -21 -21 -21s-21 9 -21 21s9 22 21 22zM213 245 c18 0 32 -14 32 -32s-14 -32 -32 -32s-32 14 -32 32s14 32 32 32zM213 363c-12 0 -21 9 -21 21s9 21 21 21s22 -9 22 -21s-10 -21 -22 -21zM213 437c-6 0 -10 5 -10 11s4 11 10 11s11 -5 11 -11s-5 -11 -11 -11zM213 75c6 0 11 -5 11 -11s-5 -11 -11 -11s-10 5 -10 11 s4 11 10 11zM64 224c6 0 11 -5 11 -11s-5 -10 -11 -10s-11 4 -11 10s5 11 11 11zM299 437c-6 0 -11 5 -11 11s5 11 11 11s10 -5 10 -11s-4 -11 -10 -11zM299 363c-12 0 -22 9 -22 21s10 21 22 21s21 -9 21 -21s-9 -21 -21 -21zM448 288c-6 0 -11 5 -11 11s5 10 11 10 s11 -4 11 -10s-5 -11 -11 -11zM128 405c12 0 21 -9 21 -21s-9 -21 -21 -21s-21 9 -21 21s9 21 21 21zM64 309c6 0 11 -4 11 -10s-5 -11 -11 -11s-11 5 -11 11s5 10 11 10zM128 320c12 0 21 -9 21 -21s-9 -22 -21 -22s-21 10 -21 22s9 21 21 21zM128 149c12 0 21 -9 21 -21 s-9 -21 -21 -21s-21 9 -21 21s9 21 21 21zM128 235c12 0 21 -10 21 -22s-9 -21 -21 -21s-21 9 -21 21s9 22 21 22z"/>
    <glyph glyph-name="book" unicode="book" d="M128 427v-171l53 32l54 -32v171h-107zM384 469c23 0 43 -19 43 -42v-342c0 -23 -20 -42 -43 -42h-256c-23 0 -43 19 -43 42v342c0 23 20 42 43 42h256z"/>
    <glyph glyph-name="bookmark" unicode="bookmark" d="M363 448c23 0 42 -20 42 -43v-341l-149 64l-149 -64v341c0 23 19 43 42 43h214z"/>
    <glyph glyph-name="bookmark_border" unicode="bookmark_border" d="M363 128v277h-214v-277l107 47zM363 448c23 0 42 -20 42 -43v-341l-149 64l-149 -64v341c0 23 19 43 42 43h214z"/>
    <glyph glyph-name="border_all" unicode="border_all" d="M405 277v128h-128v-128h128zM405 107v128h-128v-128h128zM235 277v128h-128v-128h128zM235 107v128h-128v-128h128zM64 448h384v-384h-384v384z"/>
    <glyph glyph-name="border_bottom" unicode="border_bottom" d="M107 192v-43h-43v43h43zM64 64v43h384v-43h-384zM107 277v-42h-43v42h43zM405 320v43h43v-43h-43zM405 448h43v-43h-43v43zM107 363v-43h-43v43h43zM405 149v43h43v-43h-43zM405 235v42h43v-42h-43zM363 448v-43h-43v43h43zM277 448v-43h-42v43h42zM363 277v-42h-43v42 h43zM277 363v-43h-42v43h42zM107 448v-43h-43v43h43zM277 277v-42h-42v42h42zM192 448v-43h-43v43h43zM277 192v-43h-42v43h42zM192 277v-42h-43v42h43z"/>
    <glyph glyph-name="border_clear" unicode="border_clear" d="M320 405v43h43v-43h-43zM320 235v42h43v-42h-43zM320 64v43h43v-43h-43zM235 405v43h42v-43h-42zM405 448h43v-43h-43v43zM235 320v43h42v-43h-42zM405 320v43h43v-43h-43zM405 64v43h43v-43h-43zM405 235v42h43v-42h-43zM405 149v43h43v-43h-43zM235 235v42h42v-42h-42z M64 405v43h43v-43h-43zM64 320v43h43v-43h-43zM64 235v42h43v-42h-43zM64 149v43h43v-43h-43zM64 64v43h43v-43h-43zM235 64v43h42v-43h-42zM235 149v43h42v-43h-42zM149 64v43h43v-43h-43zM149 235v42h43v-42h-43zM149 405v43h43v-43h-43z"/>
    <glyph glyph-name="border_color" unicode="border_color" d="M0 85h512v-85h-512v85zM442 426l-42 -42l-80 80l42 42c8 8 22 8 30 0l50 -50c8 -8 8 -22 0 -30zM379 363l-214 -214h-80v80l214 214z"/>
    <glyph glyph-name="border_horizontal" unicode="border_horizontal" d="M405 64v43h43v-43h-43zM320 64v43h43v-43h-43zM235 149v43h42v-43h-42zM405 320v43h43v-43h-43zM405 448h43v-43h-43v43zM64 235v42h384v-42h-384zM235 64v43h42v-43h-42zM405 149v43h43v-43h-43zM277 448v-43h-42v43h42zM277 363v-43h-42v43h42zM363 448v-43h-43v43h43z M192 448v-43h-43v43h43zM107 448v-43h-43v43h43zM149 64v43h43v-43h-43zM64 149v43h43v-43h-43zM107 363v-43h-43v43h43zM64 64v43h43v-43h-43z"/>
    <glyph glyph-name="border_inner" unicode="border_inner" d="M405 149v43h43v-43h-43zM405 64v43h43v-43h-43zM277 448v-171h171v-42h-171v-171h-42v171h-171v42h171v171h42zM320 64v43h43v-43h-43zM405 448h43v-43h-43v43zM405 320v43h43v-43h-43zM363 448v-43h-43v43h43zM107 448v-43h-43v43h43zM192 448v-43h-43v43h43zM64 149v43 h43v-43h-43zM107 363v-43h-43v43h43zM149 64v43h43v-43h-43zM64 64v43h43v-43h-43z"/>
    <glyph glyph-name="border_left" unicode="border_left" d="M320 405v43h43v-43h-43zM320 235v42h43v-42h-43zM405 64v43h43v-43h-43zM405 235v42h43v-42h-43zM405 448h43v-43h-43v43zM405 149v43h43v-43h-43zM320 64v43h43v-43h-43zM405 320v43h43v-43h-43zM64 64v384h43v-384h-43zM149 235v42h43v-42h-43zM149 405v43h43v-43h-43z M149 64v43h43v-43h-43zM235 235v42h42v-42h-42zM235 320v43h42v-43h-42zM235 405v43h42v-43h-42zM235 149v43h42v-43h-42zM235 64v43h42v-43h-42z"/>
    <glyph glyph-name="border_outer" unicode="border_outer" d="M192 277v-42h-43v42h43zM277 192v-43h-42v43h42zM405 107v298h-298v-298h298zM64 448h384v-384h-384v384zM363 277v-42h-43v42h43zM277 277v-42h-42v42h42zM277 363v-43h-42v43h42z"/>
    <glyph glyph-name="border_right" unicode="border_right" d="M235 320v43h42v-43h-42zM235 405v43h42v-43h-42zM235 235v42h42v-42h-42zM320 405v43h43v-43h-43zM320 64v43h43v-43h-43zM405 448h43v-384h-43v384zM320 235v42h43v-42h-43zM235 149v43h42v-43h-42zM64 320v43h43v-43h-43zM64 149v43h43v-43h-43zM64 235v42h43v-42h-43z M235 64v43h42v-43h-42zM64 64v43h43v-43h-43zM149 235v42h43v-42h-43zM149 405v43h43v-43h-43zM64 405v43h43v-43h-43zM149 64v43h43v-43h-43z"/>
    <glyph glyph-name="border_style" unicode="border_style" d="M405 320v43h43v-43h-43zM64 448h384v-43h-341v-341h-43v384zM405 235v42h43v-42h-43zM405 149v43h43v-43h-43zM235 64v43h42v-43h-42zM149 64v43h43v-43h-43zM405 64v43h43v-43h-43zM320 64v43h43v-43h-43z"/>
    <glyph glyph-name="border_top" unicode="border_top" d="M320 235v42h43v-42h-43zM405 64v43h43v-43h-43zM235 320v43h42v-43h-42zM320 64v43h43v-43h-43zM405 149v43h43v-43h-43zM64 448h384v-43h-384v43zM405 235v42h43v-42h-43zM405 320v43h43v-43h-43zM235 149v43h42v-43h-42zM64 320v43h43v-43h-43zM64 235v42h43v-42h-43z M64 64v43h43v-43h-43zM64 149v43h43v-43h-43zM235 64v43h42v-43h-42zM235 235v42h42v-42h-42zM149 235v42h43v-42h-43zM149 64v43h43v-43h-43z"/>
    <glyph glyph-name="border_vertical" unicode="border_vertical" d="M320 235v42h43v-42h-43zM320 64v43h43v-43h-43zM320 405v43h43v-43h-43zM405 320v43h43v-43h-43zM405 448h43v-43h-43v43zM405 235v42h43v-42h-43zM405 64v43h43v-43h-43zM235 64v384h42v-384h-42zM405 149v43h43v-43h-43zM149 405v43h43v-43h-43zM64 149v43h43v-43h-43z M64 64v43h43v-43h-43zM64 235v42h43v-42h-43zM149 235v42h43v-42h-43zM149 64v43h43v-43h-43zM64 405v43h43v-43h-43zM64 320v43h43v-43h-43z"/>
    <glyph glyph-name="branding_watermark" unicode="branding_watermark" d="M448 107v128h-192v-128h192zM448 448c23 0 43 -20 43 -43v-298c0 -23 -20 -43 -43 -43h-384c-23 0 -43 20 -43 43v298c0 23 20 43 43 43h384z"/>
    <glyph glyph-name="brightness_1" unicode="brightness_1" d="M43 256c0 118 95 213 213 213s213 -95 213 -213s-95 -213 -213 -213s-213 95 -213 213z"/>
    <glyph glyph-name="brightness_2" unicode="brightness_2" d="M213 469c118 0 214 -95 214 -213s-96 -213 -214 -213c-39 0 -75 10 -106 28c64 37 106 106 106 185s-42 148 -106 185c31 18 67 28 106 28z"/>
    <glyph glyph-name="brightness_3" unicode="brightness_3" d="M192 469c118 0 213 -95 213 -213s-95 -213 -213 -213c-22 0 -44 3 -64 9c87 27 149 108 149 204s-62 177 -149 204c20 6 42 9 64 9z"/>
    <glyph glyph-name="brightness_4" unicode="brightness_4" d="M256 128c71 0 128 57 128 128s-57 128 -128 128c-19 0 -37 -5 -53 -12c44 -20 74 -64 74 -116s-30 -96 -74 -116c16 -7 34 -12 53 -12zM427 327l70 -71l-70 -71v-100h-100l-71 -70l-71 70h-100v100l-70 71l70 71v100h100l71 70l71 -70h100v-100z"/>
    <glyph glyph-name="brightness_5" unicode="brightness_5" d="M256 128c71 0 128 57 128 128s-57 128 -128 128s-128 -57 -128 -128s57 -128 128 -128zM427 185v-100h-100l-71 -70l-71 70h-100v100l-70 71l70 71v100h100l71 70l71 -70h100v-100l70 -71z"/>
    <glyph glyph-name="brightness_6" unicode="brightness_6" d="M256 128c71 0 128 57 128 128s-57 128 -128 128v-256zM427 185v-100h-100l-71 -70l-71 70h-100v100l-70 71l70 71v100h100l71 70l71 -70h100v-100l70 -71z"/>
    <glyph glyph-name="brightness_7" unicode="brightness_7" d="M256 341c47 0 85 -38 85 -85s-38 -85 -85 -85s-85 38 -85 85s38 85 85 85zM256 128c71 0 128 57 128 128s-57 128 -128 128s-128 -57 -128 -128s57 -128 128 -128zM427 327l70 -71l-70 -71v-100h-100l-71 -70l-71 70h-100v100l-70 71l70 71v100h100l71 70l71 -70h100 v-100z"/>
    <glyph glyph-name="brightness_auto" unicode="brightness_auto" d="M305 171h41l-69 192h-42l-69 -192h41l15 42h68zM427 327l70 -71l-70 -71v-100h-100l-71 -70l-71 70h-100v100l-70 71l70 71v100h100l71 70l71 -70h100v-100zM231 242l25 78l25 -78h-50z"/>
    <glyph glyph-name="brightness_high" unicode="brightness_high" d="M256 341c47 0 85 -38 85 -85s-38 -85 -85 -85s-85 38 -85 85s38 85 85 85zM256 128c71 0 128 57 128 128s-57 128 -128 128s-128 -57 -128 -128s57 -128 128 -128zM427 327l70 -71l-70 -71v-100h-100l-71 -70l-71 70h-100v100l-70 71l70 71v100h100l71 70l71 -70h100 v-100z"/>
    <glyph glyph-name="brightness_low" unicode="brightness_low" d="M256 128c71 0 128 57 128 128s-57 128 -128 128s-128 -57 -128 -128s57 -128 128 -128zM427 185v-100h-100l-71 -70l-71 70h-100v100l-70 71l70 71v100h100l71 70l71 -70h100v-100l70 -71z"/>
    <glyph glyph-name="brightness_medium" unicode="brightness_medium" d="M256 128c71 0 128 57 128 128s-57 128 -128 128v-256zM427 185v-100h-100l-71 -70l-71 70h-100v100l-70 71l70 71v100h100l71 70l71 -70h100v-100l70 -71z"/>
    <glyph glyph-name="broken_image" unicode="broken_image" d="M384 268l64 -64v-97c0 -23 -20 -43 -43 -43h-298c-23 0 -43 20 -43 43v140l64 -64l85 86l86 -86zM448 405v-140l-64 64l-85 -86l-86 86l-85 -86l-64 65v97c0 23 20 43 43 43h298c23 0 43 -20 43 -43z"/>
    <glyph glyph-name="brush" unicode="brush" d="M442 413c8 -8 8 -22 0 -30l-191 -191l-59 59l191 191c8 8 22 8 30 0zM149 213c35 0 64 -29 64 -64c0 -47 -38 -85 -85 -85c-32 0 -65 17 -85 43c18 0 42 14 42 42c0 35 29 64 64 64z"/>
    <glyph glyph-name="bubble_chart" unicode="bubble_chart" d="M222 324c0 57 45 103 102 103s103 -46 103 -103s-46 -102 -103 -102s-102 45 -102 102zM273 128c0 24 19 43 43 43s42 -19 42 -43s-18 -43 -42 -43s-43 19 -43 43zM85 205c0 38 31 68 69 68s68 -30 68 -68s-30 -68 -68 -68s-69 30 -69 68z"/>
    <glyph glyph-name="bug_report" unicode="bug_report" d="M299 256v43h-86v-43h86zM299 171v42h-86v-42h86zM427 341v-42h-45c1 -7 2 -15 2 -22v-21h43v-43h-43v-21c0 -7 -1 -14 -2 -21h45v-43h-60c-22 -38 -64 -64 -111 -64s-89 26 -111 64h-60v43h45c-1 7 -2 14 -2 21v21h-43v43h43v21c0 7 1 15 2 22h-45v42h60 c10 17 23 31 39 42l-35 35l30 30l47 -46c10 2 20 3 30 3s20 -1 30 -3l47 46l30 -30l-35 -35c16 -11 29 -25 39 -42h60z"/>
    <glyph glyph-name="build" unicode="build" d="M484 107c9 -6 9 -21 -2 -30l-49 -49c-9 -9 -21 -9 -30 0l-194 194c-49 -19 -106 -9 -147 32c-43 43 -54 107 -28 158l94 -92l64 64l-92 92c51 23 115 15 158 -28c41 -41 51 -98 32 -147z"/>
    <glyph glyph-name="burst_mode" unicode="burst_mode" d="M235 149h213l-68 90l-54 -68l-38 46zM469 405c12 0 22 -9 22 -21v-256c0 -12 -10 -21 -22 -21h-256c-12 0 -21 9 -21 21v256c0 12 9 21 21 21h256zM107 405h42v-298h-42v298zM21 405h43v-298h-43v298z"/>
    <glyph glyph-name="business" unicode="business" d="M384 192v-43h-43v43h43zM384 277v-42h-43v42h43zM427 107v213h-171v-43h43v-42h-43v-43h43v-43h-43v-42h171zM213 363v42h-42v-42h42zM213 277v43h-42v-43h42zM213 192v43h-42v-43h42zM213 107v42h-42v-42h42zM128 363v42h-43v-42h43zM128 277v43h-43v-43h43zM128 192v43 h-43v-43h43zM128 107v42h-43v-42h43zM256 363h213v-299h-426v384h213v-85z"/>
    <glyph glyph-name="business_center" unicode="business_center" d="M299 363v42h-86v-42h86zM427 363c23 0 42 -20 42 -43v-64c0 -23 -19 -43 -42 -43h-128v43h-86v-43h-128c-24 0 -42 19 -42 43v64c0 23 19 43 42 43h85v42l43 43h85l43 -43v-42h86zM213 171h86v21h149v-85c0 -24 -19 -43 -43 -43h-298c-24 0 -43 19 -43 43v85h149v-21z "/>
    <glyph glyph-name="cached" unicode="cached" d="M128 256h64l-85 -85l-86 85h64c0 94 77 171 171 171c33 0 65 -10 91 -27l-31 -31c-18 10 -38 15 -60 15c-71 0 -128 -57 -128 -128zM405 341l86 -85h-64c0 -94 -77 -171 -171 -171c-33 0 -65 10 -91 27l31 31c18 -10 38 -15 60 -15c71 0 128 57 128 128h-64z"/>
    <glyph glyph-name="cake" unicode="cake" d="M384 320c35 0 64 -29 64 -64v-33c0 -23 -19 -42 -42 -42c-11 0 -21 4 -29 12l-46 46l-46 -46c-16 -16 -43 -16 -59 0l-45 46l-46 -46c-8 -8 -18 -12 -29 -12c-23 0 -42 19 -42 42v33c0 35 29 64 64 64h107v43h42v-43h107zM354 171c14 -14 32 -22 52 -22c16 0 30 5 42 13 v-98c0 -12 -9 -21 -21 -21h-342c-12 0 -21 9 -21 21v98c12 -8 26 -13 42 -13c20 0 38 8 52 22l23 23l23 -23c28 -28 76 -28 104 0l23 23zM256 384c-23 0 -43 20 -43 43c0 8 3 16 7 22l36 63l36 -63c4 -6 7 -14 7 -22c0 -23 -19 -43 -43 -43z"/>
    <glyph glyph-name="call" unicode="call" d="M141 282c31 -60 81 -110 141 -141l47 47c6 6 15 8 22 5c24 -8 50 -12 76 -12c12 0 21 -9 21 -21v-75c0 -12 -9 -21 -21 -21c-200 0 -363 163 -363 363c0 12 9 21 21 21h75c12 0 21 -9 21 -21c0 -27 4 -52 12 -76c2 -7 1 -16 -5 -22z"/>
    <glyph glyph-name="call_end" unicode="call_end" d="M256 320c-34 0 -67 -5 -98 -15v-66c0 -8 -5 -17 -12 -20c-21 -10 -40 -23 -57 -39c-4 -4 -9 -6 -15 -6s-11 2 -15 6l-53 53c-4 4 -6 9 -6 15s2 11 6 15c65 62 153 100 250 100s185 -38 250 -100c4 -4 6 -9 6 -15s-2 -11 -6 -15l-53 -53c-4 -4 -9 -6 -15 -6s-11 2 -15 6 c-17 16 -36 29 -57 39c-7 3 -12 10 -12 19v66c-31 10 -64 16 -98 16z"/>
    <glyph glyph-name="call_made" unicode="call_made" d="M192 405h213v-213h-42v141l-248 -248l-30 30l248 248h-141v42z"/>
    <glyph glyph-name="call_merge" unicode="call_merge" d="M160 341l96 96l96 -96h-75v-136l-128 -128l-30 30l116 115v119h-75zM363 77l-73 72l30 30l73 -72z"/>
    <glyph glyph-name="call_missed" unicode="call_missed" d="M418 363l30 -30l-192 -192l-149 149v-98h-43v171h171v-43h-98l119 -119z"/>
    <glyph glyph-name="call_missed_outgoing" unicode="call_missed_outgoing" d="M64 333l30 30l162 -162l119 119h-98v43h171v-171h-43v98l-149 -149z"/>
    <glyph glyph-name="call_received" unicode="call_received" d="M427 397l-248 -248h141v-42h-213v213h42v-141l248 248z"/>
    <glyph glyph-name="call_split" unicode="call_split" d="M213 427l-49 -49l113 -113v-180h-42v162l-101 101l-49 -49v128h128zM299 427h128v-128l-49 49l-62 -62l-30 30l62 62z"/>
    <glyph glyph-name="call_to_action" unicode="call_to_action" d="M448 107v64h-384v-64h384zM448 448c23 0 43 -20 43 -43v-298c0 -23 -20 -43 -43 -43h-384c-23 0 -43 20 -43 43v298c0 23 20 43 43 43h384z"/>
    <glyph glyph-name="camera" unicode="camera" d="M210 48c34.3543 59.3123 68.2469 119.086 103 178l78 -135c-37 -30 -84 -48 -135 -48c-16 0 -31 2 -46 5zM52 192h207l-79 -135c-61 23 -108 73 -128 135zM99 400c35.9996 -62.3337 71.7933 -124.873 108 -187h-160c-3 14 -4 28 -4 43c0 56 21 106 56 144zM465 299 c3 -14 4 -28 4 -43c0 -56 -21 -106 -56 -144l-102 176l-6 11h160zM460 320h-207l79 135c61 -23 108 -73 128 -135zM201 288l-2 -2l-78 135c37 30 84 48 135 48c16 0 31 -2 46 -5z"/>
    <glyph glyph-name="camera_alt" unicode="camera_alt" d="M256 149c59 0 107 48 107 107s-48 107 -107 107s-107 -48 -107 -107s48 -107 107 -107zM192 469h128l39 -42h68c23 0 42 -20 42 -43v-256c0 -23 -19 -43 -42 -43h-342c-23 0 -42 20 -42 43v256c0 23 19 43 42 43h68zM188 256c0 38 30 68 68 68s68 -30 68 -68 s-30 -68 -68 -68s-68 30 -68 68z"/>
    <glyph glyph-name="camera_enhance" unicode="camera_enhance" d="M256 149l-27 59l-58 27l58 26l27 59l27 -59l58 -26l-58 -27zM256 128c59 0 107 48 107 107s-48 106 -107 106s-107 -47 -107 -106s48 -107 107 -107zM192 448h128l39 -43h68c23 0 42 -19 42 -42v-256c0 -23 -19 -43 -42 -43h-342c-23 0 -42 20 -42 43v256 c0 23 19 42 42 42h68z"/>
    <glyph glyph-name="camera_front" unicode="camera_front" d="M149 469v-224c0 36 71 54 107 54s107 -18 107 -54v224h-214zM363 512c23 0 42 -20 42 -43v-298c0 -23 -19 -43 -42 -43h-150l64 -64l-64 -64v43h-106v42h106v43h-64c-23 0 -42 20 -42 43v298c0 23 19 43 42 43h214zM256 341c-23 0 -42 20 -42 43s19 43 42 43 s43 -20 43 -43s-20 -43 -43 -43zM299 85h106v-42h-106v42z"/>
    <glyph glyph-name="camera_rear" unicode="camera_rear" d="M256 384c23 0 42 20 42 43s-19 42 -42 42s-43 -19 -43 -42s19 -43 43 -43zM363 512c23 0 42 -20 42 -43v-298c0 -23 -19 -43 -42 -43h-150l64 -64l-64 -64v43h-106v42h106v43h-64c-23 0 -42 20 -42 43v298c0 23 19 43 42 43h214zM299 85h106v-42h-106v42z"/>
    <glyph glyph-name="camera_roll" unicode="camera_roll" d="M427 320v43h-43v-43h43zM427 128v43h-43v-43h43zM341 320v43h-42v-43h42zM341 128v43h-42v-43h42zM256 320v43h-43v-43h43zM256 128v43h-43v-43h43zM299 405h170v-320h-170c0 -23 -20 -42 -43 -42h-171c-23 0 -42 19 -42 42v320c0 23 19 43 42 43h22v21c0 12 9 22 21 22 h85c12 0 22 -10 22 -22v-21h21c23 0 43 -20 43 -43z"/>
    <glyph glyph-name="cancel" unicode="cancel" d="M363 179l-77 77l77 77l-30 30l-77 -77l-77 77l-30 -30l77 -77l-77 -77l30 -30l77 77l77 -77zM256 469c118 0 213 -95 213 -213s-95 -213 -213 -213s-213 95 -213 213s95 213 213 213z"/>
    <glyph glyph-name="card_giftcard" unicode="card_giftcard" d="M427 213v128h-109l45 -60l-35 -25c-24.0378 32.6288 -48.3187 65.0147 -72 98c-23.6829 -32.9837 -47.9614 -65.3719 -72 -98l-35 25l45 60h-109v-128h342zM427 107v42h-342v-42h342zM192 427c-12 0 -21 -10 -21 -22s9 -21 21 -21s21 9 21 21s-9 22 -21 22zM320 427 c-12 0 -21 -10 -21 -22s9 -21 21 -21s21 9 21 21s-9 22 -21 22zM427 384c24 0 42 -19 42 -43v-234c0 -24 -18 -43 -42 -43h-342c-24 0 -42 19 -42 43v234c0 24 18 43 42 43h47c-2 7 -4 14 -4 21c0 35 29 64 64 64c22 0 41 -11 53 -28l11 -15l11 15c12 17 31 28 53 28 c35 0 64 -29 64 -64c0 -7 -2 -14 -4 -21h47z"/>
    <glyph glyph-name="card_membership" unicode="card_membership" d="M427 299v128h-342v-128h342zM427 192v43h-342v-43h342zM427 469c24 0 42 -18 42 -42v-235c0 -24 -18 -43 -42 -43h-86v-106l-85 42l-85 -42v106h-86c-24 0 -42 19 -42 43v235c0 24 18 42 42 42h342z"/>
    <glyph glyph-name="card_travel" unicode="card_travel" d="M427 213v128h-64v-42h-43v42h-128v-42h-43v42h-64v-128h342zM427 107v42h-342v-42h342zM192 427v-43h128v43h-128zM427 384c24 0 42 -19 42 -43v-234c0 -24 -18 -43 -42 -43h-342c-24 0 -42 19 -42 43v234c0 24 18 43 42 43h64v43c0 24 19 42 43 42h128 c24 0 43 -18 43 -42v-43h64z"/>
    <glyph glyph-name="casino" unicode="casino" d="M352 320c18 0 32 14 32 32s-14 32 -32 32s-32 -14 -32 -32s14 -32 32 -32zM352 128c18 0 32 14 32 32s-14 32 -32 32s-32 -14 -32 -32s14 -32 32 -32zM256 224c18 0 32 14 32 32s-14 32 -32 32s-32 -14 -32 -32s14 -32 32 -32zM160 320c18 0 32 14 32 32s-14 32 -32 32 s-32 -14 -32 -32s14 -32 32 -32zM160 128c18 0 32 14 32 32s-14 32 -32 32s-32 -14 -32 -32s14 -32 32 -32zM405 448c23 0 43 -20 43 -43v-298c0 -23 -20 -43 -43 -43h-298c-23 0 -43 20 -43 43v298c0 23 20 43 43 43h298z"/>
    <glyph glyph-name="cast" unicode="cast" d="M21 299c129 0 235 -105 235 -235h-43c0 106 -86 192 -192 192v43zM21 213c83 0 150 -66 150 -149h-43c0 59 -48 107 -107 107v42zM21 128c35 0 64 -29 64 -64h-64v64zM448 448c23 0 43 -20 43 -43v-298c0 -23 -20 -43 -43 -43h-149v43h149v298h-384v-64h-43v64 c0 23 20 43 43 43h384z"/>
    <glyph glyph-name="cast_connected" unicode="cast_connected" d="M448 448c23 0 43 -20 43 -43v-298c0 -23 -20 -43 -43 -43h-149v43h149v298h-384v-64h-43v64c0 23 20 43 43 43h384zM21 299c129 0 235 -105 235 -235h-43c0 106 -86 192 -192 192v43zM405 363v-214h-120c-27 84 -94 152 -178 179v35h298zM21 213c83 0 150 -66 150 -149 h-43c0 59 -48 107 -107 107v42zM21 128c35 0 64 -29 64 -64h-64v64z"/>
    <glyph glyph-name="center_focus_strong" unicode="center_focus_strong" d="M405 107v85h43v-85c0 -23 -20 -43 -43 -43h-85v43h85zM405 448c23 0 43 -20 43 -43v-85h-43v85h-85v43h85zM107 405v-85h-43v85c0 23 20 43 43 43h85v-43h-85zM107 192v-85h85v-43h-85c-23 0 -43 20 -43 43v85h43zM256 341c47 0 85 -38 85 -85s-38 -85 -85 -85 s-85 38 -85 85s38 85 85 85z"/>
    <glyph glyph-name="center_focus_weak" unicode="center_focus_weak" d="M256 213c23 0 43 20 43 43s-20 43 -43 43s-43 -20 -43 -43s20 -43 43 -43zM256 341c47 0 85 -38 85 -85s-38 -85 -85 -85s-85 38 -85 85s38 85 85 85zM405 107v85h43v-85c0 -23 -20 -43 -43 -43h-85v43h85zM405 448c23 0 43 -20 43 -43v-85h-43v85h-85v43h85zM107 405 v-85h-43v85c0 23 20 43 43 43h85v-43h-85zM107 192v-85h85v-43h-85c-23 0 -43 20 -43 43v85h43z"/>
    <glyph glyph-name="change_history" unicode="change_history" d="M256 427l213 -342h-426zM256 346l-136 -218h272z"/>
    <glyph glyph-name="chat" unicode="chat" d="M384 341v43h-256v-43h256zM299 213v43h-171v-43h171zM128 320v-43h256v43h-256zM427 469c23 0 42 -19 42 -42v-256c0 -23 -19 -43 -42 -43h-299l-85 -85v384c0 23 19 42 42 42h342z"/>
    <glyph glyph-name="chat_bubble" unicode="chat_bubble" d="M427 469c23 0 42 -19 42 -42v-256c0 -23 -19 -43 -42 -43h-299l-85 -85v384c0 23 19 42 42 42h342z"/>
    <glyph glyph-name="chat_bubble_outline" unicode="chat_bubble_outline" d="M427 171v256h-342v-299l43 43h299zM427 469c23 0 42 -19 42 -42v-256c0 -23 -19 -43 -42 -43h-299l-85 -85v384c0 23 19 42 42 42h342z"/>
    <glyph glyph-name="check" unicode="check" d="M192 167l226 226l30 -30l-256 -256l-119 119l30 30z"/>
    <glyph glyph-name="check_box" unicode="check_box" d="M213 149l192 192l-30 31l-162 -162l-76 76l-30 -30zM405 448c24 0 43 -20 43 -43v-298c0 -23 -19 -43 -43 -43h-298c-24 0 -43 20 -43 43v298c0 23 19 43 43 43h298z"/>
    <glyph glyph-name="check_box_outline_blank" unicode="check_box_outline_blank" d="M405 448c23 0 43 -20 43 -43v-298c0 -23 -20 -43 -43 -43h-298c-23 0 -43 20 -43 43v298c0 23 20 43 43 43h298zM405 405h-298v-298h298v298z"/>
    <glyph glyph-name="check_circle" unicode="check_circle" d="M213 149l192 192l-30 31l-162 -162l-76 76l-30 -30zM256 469c118 0 213 -95 213 -213s-95 -213 -213 -213s-213 95 -213 213s95 213 213 213z"/>
    <glyph glyph-name="chevron_left" unicode="chevron_left" d="M329 354l-98 -98l98 -98l-30 -30l-128 128l128 128z"/>
    <glyph glyph-name="chevron_right" unicode="chevron_right" d="M213 384l128 -128l-128 -128l-30 30l98 98l-98 98z"/>
    <glyph glyph-name="child_care" unicode="child_care" d="M160 213h192c-16 -38 -53 -64 -96 -64s-80 26 -96 64zM256 107c68.0018 0 125.232 44.8128 143 107c2 0 4 -1 6 -1c23 0 43 20 43 43s-20 43 -43 43c-2 0 -4 -1 -6 -1c-17.7643 62.1749 -74.9972 107 -143 107c-68.0018 0 -125.232 -44.8128 -143 -107c-2 0 -4 1 -6 1 c-23 0 -43 -20 -43 -43s20 -43 43 -43c2 0 4 1 6 1c17.7643 -62.1749 74.9972 -107 143 -107zM489 242c-5 -32 -28 -59 -59 -68c-28.2678 -59.1055 -94.8338 -110 -174 -110c-78.8834 0 -145.522 50.0487 -173 110c-31 9 -55 36 -60 68c-1 4 -2 9 -2 14s1 10 2 14 c5 32 29 59 60 68c11 24 26 45 46 62c34 30 78 48 127 48c80.292 0 145.109 -49.147 173 -110c31 -9 55 -36 60 -68c1 -4 2 -9 2 -14s-1 -10 -2 -14zM176 288c0 15 12 27 27 27s26 -12 26 -27s-11 -27 -26 -27s-27 12 -27 27zM283 288c0 15 11 27 26 27s27 -12 27 -27 s-12 -27 -27 -27s-26 12 -26 27z"/>
    <glyph glyph-name="child_friendly" unicode="child_friendly" d="M363 85c18 0 32 14 32 32s-14 32 -32 32s-32 -14 -32 -32s14 -32 32 -32zM171 85c18 0 32 14 32 32s-14 32 -32 32s-32 -14 -32 -32s14 -32 32 -32zM412 173c15 -14 25 -34 25 -56c0 -41 -33 -74 -74 -74c-38 0 -69 28 -74 64h-45c-5 -36 -35 -64 -73 -64 c-41 0 -75 33 -75 74c0 28 16 53 39 66c-5 7 -45 94 -45 94h-47v43h74l20 -43h311c0 -39 -14 -75 -36 -104zM277 469c94 0 171 -76 171 -170h-171v170z"/>
    <glyph glyph-name="chrome_reader_mode" unicode="chrome_reader_mode" d="M448 107v277h-192v-277h192zM448 427c23 0 43 -20 43 -43v-277c0 -23 -20 -43 -43 -43h-384c-23 0 -43 20 -43 43v277c0 23 20 43 43 43h384zM277 203h150v-32h-150v32zM277 309h150v-32h-150v32zM277 256h150v-32h-150v32z"/>
    <glyph glyph-name="class" unicode="class" d="M128 427v-171l53 32l54 -32v171h-107zM384 469c23 0 43 -19 43 -42v-342c0 -23 -20 -42 -43 -42h-256c-23 0 -43 19 -43 42v342c0 23 20 42 43 42h256z"/>
    <glyph glyph-name="clear" unicode="clear" d="M405 375l-119 -119l119 -119l-30 -30l-119 119l-119 -119l-30 30l119 119l-119 119l30 30l119 -119l119 119z"/>
    <glyph glyph-name="clear_all" unicode="clear_all" d="M149 363h299v-43h-299v43zM64 149v43h299v-43h-299zM107 235v42h298v-42h-298z"/>
    <glyph glyph-name="close" unicode="close" d="M405 375l-119 -119l119 -119l-30 -30l-119 119l-119 -119l-30 30l119 119l-119 119l30 30l119 -119l119 119z"/>
    <glyph glyph-name="closed_caption" unicode="closed_caption" d="M384 277v22c0 12 -9 21 -21 21h-64c-12 0 -22 -9 -22 -21v-86c0 -12 10 -21 22 -21h64c12 0 21 9 21 21v22h-32v-11h-43v64h43v-11h32zM235 277v22c0 12 -10 21 -22 21h-64c-12 0 -21 -9 -21 -21v-86c0 -12 9 -21 21 -21h64c12 0 22 9 22 21v22h-32v-11h-43v64h43v-11h32 zM405 427c23 0 43 -20 43 -43v-256c0 -23 -20 -43 -43 -43h-298c-24 0 -43 20 -43 43v256c0 23 19 43 43 43h298z"/>
    <glyph glyph-name="cloud" unicode="cloud" d="M413 298c55 -4 99 -50 99 -106c0 -59 -48 -107 -107 -107h-277c-71 0 -128 57 -128 128c0 66 50 120 114 127c27 51 80 87 142 87c78 0 142 -55 157 -129z"/>
    <glyph glyph-name="cloud_circle" unicode="cloud_circle" d="M352 171c29 0 53 24 53 53s-24 53 -53 53h-11c0 47 -38 86 -85 86c-40 0 -73 -28 -82 -65l-3 1c-35 0 -64 -29 -64 -64s29 -64 64 -64h181zM256 469c118 0 213 -95 213 -213s-95 -213 -213 -213s-213 95 -213 213s95 213 213 213z"/>
    <glyph glyph-name="cloud_done" unicode="cloud_done" d="M213 149l141 141l-30 30l-111 -110l-44 44l-30 -30zM413 298c55 -4 99 -50 99 -106c0 -59 -48 -107 -107 -107h-277c-71 0 -128 57 -128 128c0 66 50 120 114 127c27 51 80 87 142 87c78 0 142 -55 157 -129z"/>
    <glyph glyph-name="cloud_download" unicode="cloud_download" d="M363 235h-64v85h-86v-85h-64l107 -107zM413 298c55 -4 99 -50 99 -106c0 -59 -48 -107 -107 -107h-277c-71 0 -128 57 -128 128c0 66 50 120 114 127c27 51 80 87 142 87c78 0 142 -55 157 -129z"/>
    <glyph glyph-name="cloud_off" unicode="cloud_off" d="M165 299h-37c-47 0 -85 -39 -85 -86s38 -85 85 -85h208zM64 400l27 27l357 -357l-27 -27l-43 42h-250c-71 0 -128 57 -128 128c0 69 55 125 123 128zM413 298c55 -4 99 -50 99 -106c0 -36 -18 -68 -45 -87l-31 31c20 11 33 32 33 56c0 35 -29 64 -64 64h-32v11 c0 65 -52 117 -117 117c-20 0 -38 -4 -54 -13l-32 31c25 16 54 25 86 25c78 0 142 -55 157 -129z"/>
    <glyph glyph-name="cloud_queue" unicode="cloud_queue" d="M405 128c35 0 64 29 64 64s-29 64 -64 64h-32v11c0 65 -52 117 -117 117c-54 0 -99 -36 -113 -85h-15c-47 0 -85 -39 -85 -86s38 -85 85 -85h277zM413 298c55 -4 99 -50 99 -106c0 -59 -48 -107 -107 -107h-277c-71 0 -128 57 -128 128c0 66 50 120 114 127 c27 51 80 87 142 87c78 0 142 -55 157 -129z"/>
    <glyph glyph-name="cloud_upload" unicode="cloud_upload" d="M299 235h64l-107 106l-107 -106h64v-86h86v86zM413 298c55 -4 99 -50 99 -106c0 -59 -48 -107 -107 -107h-277c-71 0 -128 57 -128 128c0 66 50 120 114 127c27 51 80 87 142 87c78 0 142 -55 157 -129z"/>
    <glyph glyph-name="code" unicode="code" d="M311 158l99 98l-99 98l30 30l128 -128l-128 -128zM201 158l-30 -30l-128 128l128 128l30 -30l-99 -98z"/>
    <glyph glyph-name="collections" unicode="collections" d="M43 384h42v-299h299v-42h-299c-23 0 -42 19 -42 42v299zM235 256l-64 -85h256l-86 106l-63 -79zM469 171c0 -23 -19 -43 -42 -43h-256c-23 0 -43 20 -43 43v256c0 23 20 42 43 42h256c23 0 42 -19 42 -42v-256z"/>
    <glyph glyph-name="collections_bookmark" unicode="collections_bookmark" d="M427 256v171h-107v-171l53 32zM427 469c23 0 42 -19 42 -42v-256c0 -23 -19 -43 -42 -43h-256c-23 0 -43 20 -43 43v256c0 23 20 42 43 42h256zM85 384v-299h299v-42h-299c-23 0 -42 19 -42 42v299h42z"/>
    <glyph glyph-name="color_lens" unicode="color_lens" d="M373 256c18 0 32 14 32 32s-14 32 -32 32s-32 -14 -32 -32s14 -32 32 -32zM309 341c18 0 32 14 32 32s-14 32 -32 32s-32 -14 -32 -32s14 -32 32 -32zM203 341c18 0 32 14 32 32s-14 32 -32 32s-32 -14 -32 -32s14 -32 32 -32zM139 256c18 0 32 14 32 32s-14 32 -32 32 s-32 -14 -32 -32s14 -32 32 -32zM256 448c106 0 192 -77 192 -171c0 -59 -48 -106 -107 -106h-37c-18 0 -32 -14 -32 -32c0 -8 3 -15 8 -21s8 -14 8 -22c0 -18 -14 -32 -32 -32c-106 0 -192 86 -192 192s86 192 192 192z"/>
    <glyph glyph-name="colorize" unicode="colorize" d="M148 107l172 172l-41 41l-172 -172zM442 392c8 -8 9 -21 0 -30l-67 -67l41 -41l-30 -30l-30 30l-191 -190h-101v101l190 191l-30 30l30 30l41 -41l67 67c8 8 22 8 30 0z"/>
    <glyph glyph-name="comment" unicode="comment" d="M384 341v43h-256v-43h256zM384 277v43h-256v-43h256zM384 213v43h-256v-43h256zM469 427v-384l-85 85h-299c-23 0 -42 20 -42 43v256c0 23 19 42 42 42h342c23 0 42 -19 42 -42z"/>
    <glyph glyph-name="compare" unicode="compare" d="M405 448c23 0 43 -20 43 -43v-298c0 -23 -20 -43 -43 -43h-106v192l106 -128v277h-106v43h106zM213 128v128l-106 -128h106zM213 448v43h43v-470h-43v43h-106c-23 0 -43 20 -43 43v298c0 23 20 43 43 43h106z"/>
    <glyph glyph-name="compare_arrows" unicode="compare_arrows" d="M320 235l-85 85l85 85v-64h149v-42h-149v-64zM192 213v64l85 -85l-85 -85v64h-149v42h149z"/>
    <glyph glyph-name="computer" unicode="computer" d="M85 384v-213h342v213h-342zM427 128h85v-43h-512v43h85c-23 0 -42 20 -42 43v213c0 23 19 43 42 43h342c23 0 42 -20 42 -43v-213c0 -23 -19 -43 -42 -43z"/>
    <glyph glyph-name="confirmation_number" unicode="confirmation_number" d="M277 331v42h-42v-42h42zM277 235v42h-42v-42h42zM277 139v42h-42v-42h42zM469 299c-23 0 -42 -20 -42 -43s19 -43 42 -43v-85c0 -23 -19 -43 -42 -43h-342c-23 0 -42 20 -42 43v85c24 0 42 20 42 43s-19 43 -42 43v85c0 24 19 43 42 43h342c23 0 42 -19 42 -43v-85z"/>
    <glyph glyph-name="contact_mail" unicode="contact_mail" d="M469 256v128h-170v-128h170zM299 128v21c0 43 -85 66 -128 66s-128 -23 -128 -66v-21h256zM171 384c-35 0 -64 -29 -64 -64s29 -64 64 -64s64 29 64 64s-29 64 -64 64zM469 448c23 0 43 -20 43 -43v-298c0 -23 -20 -43 -43 -43h-426c-23 0 -43 20 -43 43v298 c0 23 20 43 43 43h426zM448 341l-64 -42l-64 42v22l64 -43l64 43v-22z"/>
    <glyph glyph-name="contact_phone" unicode="contact_phone" d="M381 213c-5 13 -8 28 -8 43s3 30 8 43h35l32 42l-42 43c-28 -21 -49 -50 -59 -85c-4 -14 -6 -28 -6 -43s2 -29 6 -43c10 -34 31 -64 59 -85l42 43l-32 42h-35zM299 128v21c0 43 -85 66 -128 66s-128 -23 -128 -66v-21h256zM171 384c-35 0 -64 -29 -64 -64s29 -64 64 -64 s64 29 64 64s-29 64 -64 64zM469 448c23 0 43 -20 43 -43v-298c0 -23 -20 -43 -43 -43h-426c-23 0 -43 20 -43 43v298c0 23 20 43 43 43h426z"/>
    <glyph glyph-name="contacts" unicode="contacts" d="M363 149v32c0 36 -71 54 -107 54s-107 -18 -107 -54v-32h214zM256 368c-26 0 -48 -22 -48 -48s22 -48 48 -48s48 22 48 48s-22 48 -48 48zM427 427c23 0 42 -20 42 -43v-256c0 -23 -19 -43 -42 -43h-342c-23 0 -42 20 -42 43v256c0 23 19 43 42 43h342zM85 0v43h342v-43 h-342zM427 512v-43h-342v43h342z"/>
    <glyph glyph-name="content_copy" unicode="content_copy" d="M405 64v299h-234v-299h234zM405 405c23 0 43 -19 43 -42v-299c0 -23 -20 -43 -43 -43h-234c-23 0 -43 20 -43 43v299c0 23 20 42 43 42h234zM341 491v-43h-256v-299h-42v299c0 23 19 43 42 43h256z"/>
    <glyph glyph-name="content_cut" unicode="content_cut" d="M405 448h64v-21l-149 -150l-43 43zM256 245c6 0 11 5 11 11s-5 11 -11 11s-11 -5 -11 -11s5 -11 11 -11zM128 85c23 0 43 19 43 43s-20 43 -43 43s-43 -19 -43 -43s20 -43 43 -43zM128 341c23 0 43 19 43 43s-20 43 -43 43s-43 -19 -43 -43s20 -43 43 -43zM206 349 l263 -264v-21h-64l-149 149l-50 -50c5 -11 7 -22 7 -35c0 -47 -38 -85 -85 -85s-85 38 -85 85s38 85 85 85c13 0 24 -2 35 -7l50 50l-50 50c-11 -5 -22 -7 -35 -7c-47 0 -85 38 -85 85s38 85 85 85s85 -38 85 -85c0 -13 -2 -24 -7 -35z"/>
    <glyph glyph-name="content_paste" unicode="content_paste" d="M405 85v342h-42v-64h-214v64h-42v-342h298zM256 469c-12 0 -21 -9 -21 -21s9 -21 21 -21s21 9 21 21s-9 21 -21 21zM405 469c23 0 43 -19 43 -42v-342c0 -23 -20 -42 -43 -42h-298c-23 0 -43 19 -43 42v342c0 23 20 42 43 42h89c9 25 32 43 60 43s51 -18 60 -43h89z"/>
    <glyph glyph-name="control_point" unicode="control_point" d="M256 85c94 0 171 77 171 171s-77 171 -171 171s-171 -77 -171 -171s77 -171 171 -171zM256 469c118 0 213 -95 213 -213s-95 -213 -213 -213s-213 95 -213 213s95 213 213 213zM277 363v-86h86v-42h-86v-86h-42v86h-86v42h86v86h42z"/>
    <glyph glyph-name="control_point_duplicate" unicode="control_point_duplicate" d="M320 107c82 0 149 67 149 149s-67 149 -149 149s-149 -67 -149 -149s67 -149 149 -149zM320 448c106 0 192 -86 192 -192s-86 -192 -192 -192s-192 86 -192 192s86 192 192 192zM43 256c0 -60 34 -111 85 -135v-46c-74 26 -128 98 -128 181s54 155 128 181v-46 c-51 -24 -85 -75 -85 -135zM341 341v-64h64v-42h-64v-64h-42v64h-64v42h64v64h42z"/>
    <glyph glyph-name="copyright" unicode="copyright" d="M256 85c94 0 171 77 171 171s-77 171 -171 171s-171 -77 -171 -171s77 -171 171 -171zM256 469c118 0 213 -95 213 -213s-95 -213 -213 -213s-213 95 -213 213s95 213 213 213zM253 317c-30.7612 0 -40 -27.2286 -40 -58v-6c0 -30.7691 9.25381 -58 40 -58 c18.7788 0 35 11.4624 35 30h38c0 -19.5209 -10.5691 -34.2021 -22 -44c-12.8931 -11.0512 -27.9049 -18 -51 -18c-54.5845 0 -82 36.0734 -82 90v6c0 25.8562 7.26023 49.4403 20 64c13.1991 15.0847 34.3422 27 62 27c22.1368 0 40.6281 -7.62806 52 -19 c11.0024 -11.0024 21 -27.9871 21 -49h-38c0 5 -1 9 -3 13s-4 9 -7 12c-5.41728 5.41728 -14.6761 10 -25 10z"/>
    <glyph glyph-name="create" unicode="create" d="M442 362l-39 -39l-80 80l39 39c8 8 22 8 30 0l50 -50c8 -8 8 -22 0 -30zM64 144l236 236l80 -80l-236 -236h-80v80z"/>
    <glyph glyph-name="create_new_folder" unicode="create_new_folder" d="M405 213v43h-64v64h-42v-64h-64v-43h64v-64h42v64h64zM427 384c24 0 42 -19 42 -43v-213c0 -24 -18 -43 -42 -43h-342c-24 0 -42 19 -42 43v256c0 24 18 43 42 43h128l43 -43h171z"/>
    <glyph glyph-name="credit_card" unicode="credit_card" d="M427 341v43h-342v-43h342zM427 128v128h-342v-128h342zM427 427c24 0 42 -19 42 -43v-256c0 -24 -18 -43 -42 -43h-342c-24 0 -42 19 -42 43v256c0 24 18 43 42 43h342z"/>
    <glyph glyph-name="crop" unicode="crop" d="M149 149h342v-42h-86v-86h-42v86h-214c-23 0 -42 19 -42 42v214h-86v42h86v86h42v-342zM363 192v171h-171v42h171c23 0 42 -19 42 -42v-171h-42z"/>
    <glyph glyph-name="crop_16_9" unicode="crop_16_9" d="M405 171v170h-298v-170h298zM405 384c23 0 43 -20 43 -43v-170c0 -23 -20 -43 -43 -43h-298c-23 0 -43 20 -43 43v170c0 23 20 43 43 43h298z"/>
    <glyph glyph-name="crop_3_2" unicode="crop_3_2" d="M405 128v256h-298v-256h298zM405 427c23 0 43 -20 43 -43v-256c0 -23 -20 -43 -43 -43h-298c-23 0 -43 20 -43 43v256c0 23 20 43 43 43h298z"/>
    <glyph glyph-name="crop_5_4" unicode="crop_5_4" d="M405 149v214h-298v-214h298zM405 405c23 0 43 -19 43 -42v-214c0 -23 -20 -42 -43 -42h-298c-23 0 -43 19 -43 42v214c0 23 20 42 43 42h298z"/>
    <glyph glyph-name="crop_7_5" unicode="crop_7_5" d="M405 192v128h-298v-128h298zM405 363c23 0 43 -20 43 -43v-128c0 -23 -20 -43 -43 -43h-298c-23 0 -43 20 -43 43v128c0 23 20 43 43 43h298z"/>
    <glyph glyph-name="crop_din" unicode="crop_din" d="M405 107v298h-298v-298h298zM405 448c23 0 43 -20 43 -43v-298c0 -23 -20 -43 -43 -43h-298c-23 0 -43 20 -43 43v298c0 23 20 43 43 43h298z"/>
    <glyph glyph-name="crop_free" unicode="crop_free" d="M405 448c23 0 43 -20 43 -43v-85h-43v85h-85v43h85zM405 107v85h43v-85c0 -23 -20 -43 -43 -43h-85v43h85zM107 192v-85h85v-43h-85c-23 0 -43 20 -43 43v85h43zM64 405c0 23 20 43 43 43h85v-43h-85v-85h-43v85z"/>
    <glyph glyph-name="crop_landscape" unicode="crop_landscape" d="M405 149v214h-298v-214h298zM405 405c23 0 43 -19 43 -42v-214c0 -23 -20 -42 -43 -42h-298c-23 0 -43 19 -43 42v214c0 23 20 42 43 42h298z"/>
    <glyph glyph-name="crop_original" unicode="crop_original" d="M298 250l75 -101h-234l58 76l42 -51zM405 107v298h-298v-298h298zM405 448c23 0 43 -20 43 -43v-298c0 -23 -20 -43 -43 -43h-298c-23 0 -43 20 -43 43v298c0 23 20 43 43 43h298z"/>
    <glyph glyph-name="crop_portrait" unicode="crop_portrait" d="M363 107v298h-214v-298h214zM363 448c23 0 42 -20 42 -43v-298c0 -23 -19 -43 -42 -43h-214c-23 0 -42 20 -42 43v298c0 23 19 43 42 43h214z"/>
    <glyph glyph-name="crop_rotate" unicode="crop_rotate" d="M171 171h256v-43h-43v-43h-43v43h-170c-24 0 -43 20 -43 43v170h-43v43h43v43h43v-256zM341 213v128h-128v43h128c23 0 43 -19 43 -43v-128h-43zM257 512c134 0 244 -104 255 -235h-32c-8 80 -57 148 -127 181l-29 -28l-81 81c5 0 9 1 14 1zM159 54l29 28l81 -81 c-5 0 -9 -1 -14 -1c-134 0 -244 104 -255 235h32c8 -80 57 -148 127 -181z"/>
    <glyph glyph-name="crop_square" unicode="crop_square" d="M384 128v256h-256v-256h256zM384 427c23 0 43 -20 43 -43v-256c0 -23 -20 -43 -43 -43h-256c-23 0 -43 20 -43 43v256c0 23 20 43 43 43h256z"/>
    <glyph glyph-name="dashboard" unicode="dashboard" d="M277 448h171v-128h-171v128zM277 64v213h171v-213h-171zM64 64v128h171v-128h-171zM64 235v213h171v-213h-171z"/>
    <glyph glyph-name="data_usage" unicode="data_usage" d="M256 107c47 0 89 22 116 56l56 -33c-39 -53 -101 -87 -172 -87c-118 0 -213 95 -213 213c0 111 84 201 192 212v-64c-72 -10 -128 -73 -128 -148c0 -83 66 -149 149 -149zM277 468c108 -11 192 -101 192 -212c0 -31 -6 -61 -18 -87l-56 33c6 17 10 35 10 54 c0 75 -56 138 -128 148v64z"/>
    <glyph glyph-name="date_range" unicode="date_range" d="M405 85v235h-298v-235h298zM405 427c23 0 43 -20 43 -43v-299c0 -23 -20 -42 -43 -42h-298c-24 0 -43 19 -43 42v299c0 23 19 43 43 43h21v42h43v-42h170v42h43v-42h21zM363 277v-42h-43v42h43zM277 277v-42h-42v42h42zM192 277v-42h-43v42h43z"/>
    <glyph glyph-name="dehaze" unicode="dehaze" d="M43 395h426v-43h-426v43zM43 288h426v-43h-426v43zM43 181h426v-42h-426v42z"/>
    <glyph glyph-name="delete" unicode="delete" d="M405 427v-43h-298v43h74l22 21h106l22 -21h74zM128 107v256h256v-256c0 -23 -20 -43 -43 -43h-170c-23 0 -43 20 -43 43z"/>
    <glyph glyph-name="delete_forever" unicode="delete_forever" d="M331 427h74v-43h-298v43h74l22 21h106zM180 259l46 -46l-45 -45l30 -30l45 45l45 -45l30 30l-45 45l45 46l-30 30l-45 -46l-45 46zM128 107v256h256v-256c0 -23 -20 -43 -43 -43h-170c-23 0 -43 20 -43 43z"/>
    <glyph glyph-name="delete_sweep" unicode="delete_sweep" d="M299 405v-42h-256v42h64l21 22h85l22 -22h64zM64 128v213h213v-213c0 -23 -19 -43 -42 -43h-128c-23 0 -43 20 -43 43zM320 256h128v-43h-128v43zM320 341h149v-42h-149v42zM320 171h85v-43h-85v43z"/>
    <glyph glyph-name="description" unicode="description" d="M277 320h118l-118 117v-117zM341 213v43h-170v-43h170zM341 128v43h-170v-43h170zM299 469l128 -128v-256c0 -23 -20 -42 -43 -42h-256c-23 0 -43 19 -43 42l1 342c0 23 19 42 42 42h171z"/>
    <glyph glyph-name="desktop_mac" unicode="desktop_mac" d="M448 213v214h-384v-214h384zM448 469c23 0 43 -19 43 -42v-256c0 -23 -20 -43 -43 -43h-149l42 -64v-21h-170v21l42 64h-149c-23 0 -43 20 -43 43v256c0 23 20 42 43 42h384z"/>
    <glyph glyph-name="desktop_windows" unicode="desktop_windows" d="M448 171v256h-384v-256h384zM448 469c23 0 43 -19 43 -42v-256c0 -23 -20 -43 -43 -43h-149v-43h42v-42h-170v42h42v43h-149c-23 0 -43 20 -43 43v256c0 23 20 42 43 42h384z"/>
    <glyph glyph-name="details" unicode="details" d="M136 384l120 -213l120 213h-240zM64 427h384l-192 -342z"/>
    <glyph glyph-name="developer_board" unicode="developer_board" d="M256 277h85v-128h-85v128zM128 363h107v-107h-107v107zM256 363h85v-64h-85v64zM128 235h107v-86h-107v86zM384 107v298h-299v-298h299zM469 320h-42v-43h42v-42h-42v-43h42v-43h-42v-42c0 -23 -20 -43 -43 -43h-299c-23 0 -42 20 -42 43v298c0 23 19 43 42 43h299 c23 0 43 -20 43 -43v-42h42v-43z"/>
    <glyph glyph-name="developer_mode" unicode="developer_mode" d="M363 107v42h42v-85c0 -23 -19 -43 -42 -43h-214c-23 0 -42 20 -42 43v85h42v-42h214zM213 188l-30 -30l-98 98l98 98l30 -30l-67 -68zM329 158l-30 30l67 68l-67 68l30 30l98 -98zM149 405v-42h-42v85c0 23 19 43 42 43l214 -1c23 0 42 -19 42 -42v-85h-42v42h-214z"/>
    <glyph glyph-name="device_hub" unicode="device_hub" d="M363 171h85v-107h-107v65l-85 90l-85 -90v-65h-107v107h85l86 85v68c-25 9 -43 32 -43 60c0 35 29 64 64 64s64 -29 64 -64c0 -28 -18 -51 -43 -60v-68z"/>
    <glyph glyph-name="devices" unicode="devices" d="M469 149v150h-85v-150h85zM491 341c12 0 21 -9 21 -21v-213c0 -12 -9 -22 -21 -22h-128c-12 0 -22 10 -22 22v213c0 12 10 21 22 21h128zM85 384v-235h214v-64h-299v64h43v235c0 23 19 43 42 43h384v-43h-384z"/>
    <glyph glyph-name="devices_other" unicode="devices_other" d="M448 128v171h-85v-171h85zM469 341c11 0 22 -10 22 -21v-213c0 -11 -11 -22 -22 -22h-128c-11 0 -21 11 -21 22v213c0 11 10 21 21 21h128zM235 139c18 0 32 14 32 32s-14 32 -32 32s-32 -14 -32 -32s14 -32 32 -32zM277 256v-38c13 -12 22 -28 22 -47s-9 -36 -22 -48 v-38h-85v38c-13 12 -21 29 -21 48s8 35 21 47v38h85zM64 384v-256h85v-43h-85c-23 0 -43 20 -43 43v256c0 23 20 43 43 43h384v-43h-384z"/>
    <glyph glyph-name="dialer_sip" unicode="dialer_sip" d="M427 181c12 0 21 -9 21 -21v-75c0 -12 -9 -21 -21 -21c-200 0 -363 163 -363 363c0 12 9 21 21 21h75c12 0 21 -9 21 -21c0 -27 4 -52 12 -76c2 -7 1 -16 -5 -22l-47 -47c31 -61 81 -110 141 -141l47 47c6 6 15 7 22 5c24 -8 49 -12 76 -12zM427 405v22h-22v-22h22z M384 448h64v-64h-43v-43h-21v107zM320 405v-64h-64v22h43v21h-43v64h64v-21h-43v-22h43zM363 448v-107h-22v107h22z"/>
    <glyph glyph-name="dialpad" unicode="dialpad" d="M256 491c23 0 43 -20 43 -43s-20 -43 -43 -43s-43 20 -43 43s20 43 43 43zM256 363c23 0 43 -20 43 -43s-20 -43 -43 -43s-43 20 -43 43s20 43 43 43zM384 363c23 0 43 -20 43 -43s-20 -43 -43 -43s-43 20 -43 43s20 43 43 43zM384 235c23 0 43 -20 43 -43 s-20 -43 -43 -43s-43 20 -43 43s20 43 43 43zM256 235c23 0 43 -20 43 -43s-20 -43 -43 -43s-43 20 -43 43s20 43 43 43zM384 405c-23 0 -43 20 -43 43s20 43 43 43s43 -20 43 -43s-20 -43 -43 -43zM128 235c23 0 43 -20 43 -43s-20 -43 -43 -43s-43 20 -43 43s20 43 43 43z M128 363c23 0 43 -20 43 -43s-20 -43 -43 -43s-43 20 -43 43s20 43 43 43zM128 491c23 0 43 -20 43 -43s-20 -43 -43 -43s-43 20 -43 43s20 43 43 43zM256 107c23 0 43 -20 43 -43s-20 -43 -43 -43s-43 20 -43 43s20 43 43 43z"/>
    <glyph glyph-name="directions" unicode="directions" d="M299 203l74 74l-74 75v-53h-107c-12 0 -21 -10 -21 -22v-85h42v64h86v-53zM463 271c8 -9 8 -22 0 -30l-192 -192c-8 -8 -22 -8 -30 0l-192 192c-8 8 -8 22 0 30l192 192c8 8 22 8 30 0z"/>
    <glyph glyph-name="directions_bike" unicode="directions_bike" d="M405 75c41 0 75 33 75 74s-34 75 -75 75s-74 -34 -74 -75s33 -74 74 -74zM405 256c60 0 107 -47 107 -107s-47 -106 -107 -106s-106 46 -106 106s46 107 106 107zM230 288l47 -49v-132h-42v106l-69 60c-9 6 -12 17 -12 30c0 11 3 21 12 30l60 60c6 9 17 12 30 12 s23 -3 34 -12l41 -41c19 -19 44 -32 76 -32v-43c-45 0 -80 17 -108 45l-17 17zM107 75c41 0 74 33 74 74s-33 75 -74 75s-75 -34 -75 -75s34 -74 75 -74zM107 256c60 0 106 -47 106 -107s-46 -106 -106 -106s-107 46 -107 106s47 107 107 107zM331 395c-23 0 -43 19 -43 42 s20 43 43 43s42 -20 42 -43s-19 -42 -42 -42z"/>
    <glyph glyph-name="directions_boat" unicode="directions_boat" d="M128 384v-85l128 42l128 -42v85h-256zM84 107l-40 142c-4.78212 14.3464 3.99001 23.6633 14 27l27 9v99c0 23 20 43 43 43h64v64h128v-64h64c23 0 43 -20 43 -43v-99l27 -9c10.0202 -3.34008 18.7871 -12.6386 14 -27l-40 -142h-1c-34 0 -65 18 -86 42 c-21 -24 -51 -42 -85 -42s-64 18 -85 42c-21 -24 -52 -42 -86 -42h-1zM427 64h42v-43h-42c-29 0 -59 7 -86 21c-54 -28 -116 -28 -170 0c-27 -14 -57 -21 -86 -21h-42v43h42c30 0 60 10 86 28c52 -36 118 -36 170 0c26 -18 56 -28 86 -28z"/>
    <glyph glyph-name="directions_bus" unicode="directions_bus" d="M384 277v107h-256v-107h256zM352 149c18 0 32 14 32 32s-14 32 -32 32s-32 -14 -32 -32s14 -32 32 -32zM160 149c18 0 32 14 32 32s-14 32 -32 32s-32 -14 -32 -32s14 -32 32 -32zM85 171v213c0 75 77 85 171 85s171 -10 171 -85v-213c0 -19 -9 -36 -22 -48v-38 c0 -12 -9 -21 -21 -21h-21c-12 0 -22 9 -22 21v22h-170v-22c0 -12 -10 -21 -22 -21h-21c-12 0 -21 9 -21 21v38c-13 12 -22 29 -22 48z"/>
    <glyph glyph-name="directions_car" unicode="directions_car" d="M107 277h298l-32 96h-234zM373 171c18 0 32 14 32 32s-14 32 -32 32s-32 -14 -32 -32s14 -32 32 -32zM139 171c18 0 32 14 32 32s-14 32 -32 32s-32 -14 -32 -32s14 -32 32 -32zM404 384l44 -128v-171c0 -12 -9 -21 -21 -21h-22c-12 0 -21 9 -21 21v22h-256v-22 c0 -12 -9 -21 -21 -21h-22c-12 0 -21 9 -21 21v171l44 128c4 13 17 21 31 21h234c14 0 27 -8 31 -21z"/>
    <glyph glyph-name="directions_railway" unicode="directions_railway" d="M384 299v106h-256v-106h256zM256 149c23 0 43 20 43 43s-20 43 -43 43s-43 -20 -43 -43s20 -43 43 -43zM85 181v224c0 75 77 86 171 86s171 -11 171 -86v-224c0 -41 -34 -74 -75 -74l32 -32v-11h-256v11l32 32c-41 0 -75 33 -75 74z"/>
    <glyph glyph-name="directions_run" unicode="directions_run" d="M211 99l-149 29l8 43l105 -21l34 173l-39 -15v-73h-42v100l111 47c6 0 11 2 17 2c15 0 27 -8 36 -21l21 -34c17 -30 51 -51 92 -51v-43c-47 0 -89 21 -117 53l-13 -64l45 -42v-160h-43v128l-45 42zM288 395c-23 0 -43 20 -43 43s20 42 43 42s42 -19 42 -42 s-19 -43 -42 -43z"/>
    <glyph glyph-name="directions_subway" unicode="directions_subway" d="M384 277v107h-107v-107h107zM352 149c18 0 32 14 32 32s-14 32 -32 32s-32 -14 -32 -32s14 -32 32 -32zM235 277v107h-107v-107h107zM160 149c18 0 32 14 32 32s-14 32 -32 32s-32 -14 -32 -32s14 -32 32 -32zM256 469c94 0 171 -10 171 -85v-203c0 -41 -34 -74 -75 -74 l32 -32v-11h-256v11l32 32c-41 0 -75 33 -75 74v203c0 75 77 85 171 85z"/>
    <glyph glyph-name="directions_transit" unicode="directions_transit" d="M384 277v107h-107v-107h107zM352 149c18 0 32 14 32 32s-14 32 -32 32s-32 -14 -32 -32s14 -32 32 -32zM235 277v107h-107v-107h107zM160 149c18 0 32 14 32 32s-14 32 -32 32s-32 -14 -32 -32s14 -32 32 -32zM256 469c94 0 171 -10 171 -85v-203c0 -41 -34 -74 -75 -74 l32 -32v-11h-256v11l32 32c-41 0 -75 33 -75 74v203c0 75 77 85 171 85z"/>
    <glyph glyph-name="directions_walk" unicode="directions_walk" d="M209 322l-60 -301h45l39 171l44 -43v-128h43v160l-45 43l13 64c28 -32 70 -53 117 -53v42c-41 0 -74 22 -91 52l-22 34c-9 13 -21 21 -36 21c-6 0 -11 -2 -17 -2l-111 -47v-100h43v72l38 15zM288 395c-23 0 -43 19 -43 42s20 43 43 43s43 -20 43 -43s-20 -42 -43 -42z "/>
    <glyph glyph-name="disc_full" unicode="disc_full" d="M213 213c23 0 43 20 43 43s-20 43 -43 43s-42 -20 -42 -43s19 -43 42 -43zM213 427c94 0 171 -77 171 -171s-77 -171 -171 -171s-170 77 -170 171s76 171 170 171zM427 363h42v-107h-42v107zM427 171v42h42v-42h-42z"/>
    <glyph glyph-name="dns" unicode="dns" d="M149 320c23 0 43 20 43 43s-20 42 -43 42s-42 -19 -42 -42s19 -43 42 -43zM427 448c12 0 21 -9 21 -21v-128c0 -12 -9 -22 -21 -22h-342c-12 0 -21 10 -21 22v128c0 12 9 21 21 21h342zM149 107c23 0 43 19 43 42s-20 43 -43 43s-42 -20 -42 -43s19 -42 42 -42zM427 235 c12 0 21 -10 21 -22v-128c0 -12 -9 -21 -21 -21h-342c-12 0 -21 9 -21 21v128c0 12 9 22 21 22h342z"/>
    <glyph glyph-name="do_not_disturb" unicode="do_not_disturb" d="M391 151c23 29 36 66 36 105c0 94 -77 171 -171 171c-39 0 -76 -13 -105 -36zM256 85c39 0 76 13 105 36l-240 240c-23 -29 -36 -66 -36 -105c0 -94 77 -171 171 -171zM256 469c118 0 213 -95 213 -213s-95 -213 -213 -213s-213 95 -213 213s95 213 213 213z"/>
    <glyph glyph-name="do_not_disturb_alt" unicode="do_not_disturb_alt" d="M256 85c94 0 171 77 171 171c0 38 -14 75 -37 105l-239 -239c30 -23 67 -37 105 -37zM85 256c0 -38 14 -75 37 -105l239 239c-30 23 -67 37 -105 37c-94 0 -171 -77 -171 -171zM256 469c117 0 213 -96 213 -213s-96 -213 -213 -213s-213 96 -213 213s96 213 213 213z"/>
    <glyph glyph-name="do_not_disturb_off" unicode="do_not_disturb_off" d="M149 235h74l-43 42h-31v-42zM48 464l416 -416l-28 -27l-59 60c-34 -24 -76 -38 -121 -38c-118 0 -213 95 -213 213c0 45 14 87 38 121l-60 59zM363 277h-74l-154 154c34 24 76 38 121 38c118 0 213 -95 213 -213c0 -45 -14 -87 -38 -121l-99 100h31v42z"/>
    <glyph glyph-name="do_not_disturb_on" unicode="do_not_disturb_on" d="M363 235v42h-214v-42h214zM256 469c118 0 213 -95 213 -213s-95 -213 -213 -213s-213 95 -213 213s95 213 213 213z"/>
    <glyph glyph-name="dock" unicode="dock" d="M341 192v213h-170v-213h170zM341 490c23 0 43 -19 43 -42v-299c0 -23 -20 -42 -43 -42h-170c-23 0 -43 19 -43 42v299c0 23 20 43 43 43zM171 21v43h170v-43h-170z"/>
    <glyph glyph-name="domain" unicode="domain" d="M384 192v-43h-43v43h43zM384 277v-42h-43v42h43zM427 107v213h-171v-43h43v-42h-43v-43h43v-43h-43v-42h171zM213 363v42h-42v-42h42zM213 277v43h-42v-43h42zM213 192v43h-42v-43h42zM213 107v42h-42v-42h42zM128 363v42h-43v-42h43zM128 277v43h-43v-43h43zM128 192v43 h-43v-43h43zM128 107v42h-43v-42h43zM256 363h213v-299h-426v384h213v-85z"/>
    <glyph glyph-name="done" unicode="done" d="M192 166l226 227l30 -30l-256 -256l-119 119l29 30z"/>
    <glyph glyph-name="done_all" unicode="done_all" d="M9 226l30 30l119 -119l-30 -30zM474 393l31 -30l-256 -256l-120 119l31 30l89 -89zM384 363l-135 -136l-30 30l135 136z"/>
    <glyph glyph-name="donut_large" unicode="donut_large" d="M277 108c64 9 119 63 128 127h64c-10 -107 -85 -182 -192 -192v65zM405 277c-9 64 -64 118 -128 127v65c107 -10 182 -85 192 -192h-64zM235 404c-64 -10 -128 -73 -128 -148s64 -138 128 -148v-65c-107 11 -192 102 -192 213s85 202 192 213v-65z"/>
    <glyph glyph-name="donut_small" unicode="donut_small" d="M277 195c21 6 33 22 40 40h152c-10 -101 -85 -182 -192 -192v152zM317 277c-7 18 -19 34 -40 40v152c107 -10 182 -91 192 -192h-152zM235 317c-21 -9 -43 -33 -43 -61s22 -52 43 -61v-152c-107 11 -192 102 -192 213s85 202 192 213v-152z"/>
    <glyph glyph-name="drafts" unicode="drafts" d="M256 235l176 110l-176 103l-176 -103zM469 341v-213c0 -23 -19 -43 -42 -43h-342c-23 0 -42 20 -42 43v213c0 15 8 30 20 37l193 113l193 -113c12 -7 20 -22 20 -37z"/>
    <glyph glyph-name="drag_handle" unicode="drag_handle" d="M85 192v43h342v-43h-342zM427 320v-43h-342v43h342z"/>
    <glyph glyph-name="drive_eta" unicode="drive_eta" d="M107 299h298l-32 96h-234zM373 192c18 0 32 14 32 32s-14 32 -32 32s-32 -14 -32 -32s14 -32 32 -32zM139 192c18 0 32 14 32 32s-14 32 -32 32s-32 -14 -32 -32s14 -32 32 -32zM404 405l44 -128v-170c0 -12 -9 -22 -21 -22h-22c-12 0 -21 10 -21 22v21h-256v-21 c0 -12 -9 -22 -21 -22h-22c-12 0 -21 10 -21 22v170l44 128c4 13 17 22 31 22h234c14 0 27 -9 31 -22z"/>
    <glyph glyph-name="dvr" unicode="dvr" d="M149 256v-43h-42v43h42zM149 341v-42h-42v42h42zM405 256v-43h-234v43h234zM405 341v-42h-234v42h234zM448 149v256h-384v-256h384zM448 448c23 0 43 -20 43 -43l-1 -256c0 -23 -19 -42 -42 -42h-107v-43h-170v43h-107c-23 0 -43 19 -43 42v256c0 23 20 43 43 43h384z "/>
    <glyph glyph-name="edit" unicode="edit" d="M442 362l-39 -39l-80 80l39 39c8 8 22 8 30 0l50 -50c8 -8 8 -22 0 -30zM64 144l236 236l80 -80l-236 -236h-80v80z"/>
    <glyph glyph-name="edit_location" unicode="edit_location" d="M318 351c3 3 3 8 0 11l-20 20c-3 3 -8 3 -11 0l-15 -15l31 -31zM223 256l71 71l-31 31l-71 -71v-31h31zM256 469c82 0 149 -67 149 -149c0 -112 -149 -277 -149 -277s-149 165 -149 277c0 82 67 149 149 149z"/>
    <glyph glyph-name="eject" unicode="eject" d="M256 405l142 -213h-284zM107 149h298v-42h-298v42z"/>
    <glyph glyph-name="email" unicode="email" d="M427 341v43l-171 -107l-171 107v-43l171 -106zM427 427c23 0 42 -20 42 -43v-256c0 -23 -19 -43 -42 -43h-342c-23 0 -42 20 -42 43v256c0 23 19 43 42 43h342z"/>
    <glyph glyph-name="enhanced_encryption" unicode="enhanced_encryption" d="M341 171v42h-64v64h-42v-64h-64v-42h64v-64h42v64h64zM190 384v-43h132v43c0 36 -30 66 -66 66s-66 -30 -66 -66zM384 341c23 0 43 -19 43 -42v-214c0 -23 -20 -42 -43 -42h-256c-23 0 -43 19 -43 42v214c0 23 20 42 43 42h21v43c0 59 48 107 107 107s107 -48 107 -107 v-43h21z"/>
    <glyph glyph-name="equalizer" unicode="equalizer" d="M341 320h86v-235h-86v235zM85 85v171h86v-171h-86zM213 85v342h86v-342h-86z"/>
    <glyph glyph-name="error" unicode="error" d="M277 235v128h-42v-128h42zM277 149v43h-42v-43h42zM256 469c118 0 213 -95 213 -213s-95 -213 -213 -213s-213 95 -213 213s95 213 213 213z"/>
    <glyph glyph-name="error_outline" unicode="error_outline" d="M256 85c94 0 171 77 171 171s-77 171 -171 171s-171 -77 -171 -171s77 -171 171 -171zM256 469c118 0 213 -95 213 -213s-95 -213 -213 -213s-213 95 -213 213s95 213 213 213zM235 363h42v-128h-42v128zM235 192h42v-43h-42v43z"/>
    <glyph glyph-name="euro_symbol" unicode="euro_symbol" d="M320 117c35 0 66 13 90 34l38 -38c-34 -31 -79 -49 -128 -49c-84 0 -155 54 -181 128h-75v43h65c-1 7 -1 14 -1 21s0 14 1 21h-65v43h75c26 74 97 128 181 128c49 0 94 -18 128 -49l-38 -38c-24 21 -56 34 -90 34c-53 0 -100 -31 -123 -75h123v-43h-137 c-1 -7 -2 -14 -2 -21s1 -14 2 -21h137v-43h-123c23 -44 69 -75 123 -75z"/>
    <glyph glyph-name="ev_station" unicode="ev_station" d="M171 128l85 149h-43v107l-85 -160h43v-96zM384 299c12 0 21 9 21 21s-9 21 -21 21s-21 -9 -21 -21s9 -21 21 -21zM422 358c10 -10 15 -23 15 -38v-203c0 -29 -24 -53 -53 -53s-53 24 -53 53v107h-32v-160h-214v341c0 23 20 43 43 43h128c23 0 43 -20 43 -43v-149h21 c23 0 43 -20 43 -43v-96c0 -12 9 -21 21 -21s21 9 21 21v154c-7 -3 -13 -4 -21 -4c-29 0 -53 24 -53 53c0 23 14 42 34 50l-45 45l23 22z"/>
    <glyph glyph-name="event" unicode="event" d="M405 107v234h-298v-234h298zM341 491h43v-43h21c23 0 43 -20 43 -43v-298c0 -23 -20 -43 -43 -43h-298c-24 0 -43 20 -43 43v298c0 23 19 43 43 43h21v43h43v-43h170v43zM363 256v-107h-107v107h107z"/>
    <glyph glyph-name="event_available" unicode="event_available" d="M405 107v234h-298v-234h298zM405 448c23 0 43 -20 43 -43v-298c0 -23 -20 -43 -43 -43h-298c-24 0 -43 20 -43 43v298c0 23 19 43 43 43h21v43h43v-43h170v43h43v-43h21zM353 276l-127 -127l-68 68l23 23l45 -45l104 104z"/>
    <glyph glyph-name="event_busy" unicode="event_busy" d="M405 107v234h-298v-234h298zM405 448c23 0 43 -20 43 -43v-298c0 -23 -20 -43 -43 -43h-298c-24 0 -43 20 -43 43v298c0 23 19 43 43 43h21v43h43v-43h170v43h43v-43h21zM199 149l-23 23l52 52l-52 52l23 23l52 -52l52 52l22 -23l-52 -52l52 -52l-22 -23l-52 52z"/>
    <glyph glyph-name="event_note" unicode="event_note" d="M299 213v-42h-150v42h150zM405 107v234h-298v-234h298zM405 448c23 0 43 -20 43 -43v-298c0 -23 -20 -43 -43 -43h-298c-24 0 -43 20 -43 43v298c0 23 19 43 43 43h21v43h43v-43h170v43h43v-43h21zM363 299v-43h-214v43h214z"/>
    <glyph glyph-name="event_seat" unicode="event_seat" d="M363 235h-214v170c0 23 20 43 43 43h128c23 0 43 -20 43 -43v-170zM43 299h64v-64h-64v64zM405 299h64v-64h-64v64zM85 64v128h342v-128h-64v64h-214v-64h-64z"/>
    <glyph glyph-name="exit_to_app" unicode="exit_to_app" d="M405 448c23 0 43 -20 43 -43v-298c0 -23 -20 -43 -43 -43h-298c-24 0 -43 20 -43 43v85h43v-85h298v298h-298v-85h-43v85c0 23 19 43 43 43h298zM215 179l55 56h-206v42h206l-55 56l30 30l107 -107l-107 -107z"/>
    <glyph glyph-name="expand_less" unicode="expand_less" d="M256 341l128 -128l-30 -30l-98 98l-98 -98l-30 30z"/>
    <glyph glyph-name="expand_more" unicode="expand_more" d="M354 329l30 -30l-128 -128l-128 128l30 30l98 -98z"/>
    <glyph glyph-name="explicit" unicode="explicit" d="M320 320v43h-128v-214h128v43h-85v43h85v42h-85v43h85zM405 448c23 0 43 -20 43 -43v-298c0 -23 -20 -43 -43 -43h-298c-23 0 -43 20 -43 43v298c0 23 20 43 43 43h298z"/>
    <glyph glyph-name="explore" unicode="explore" d="M303 209l81 175l-175 -81l-81 -175zM256 469c118 0 213 -95 213 -213s-95 -213 -213 -213s-213 95 -213 213s95 213 213 213zM256 279c13 0 23 -10 23 -23s-10 -23 -23 -23s-23 10 -23 23s10 23 23 23z"/>
    <glyph glyph-name="exposure" unicode="exposure" d="M427 85v342l-342 -342h342zM107 405v-42h128v42h-128zM427 469c23 0 42 -19 42 -42v-342c0 -23 -19 -42 -42 -42h-342c-23 0 -42 19 -42 42v342c0 23 19 42 42 42h342zM320 149h-43v43h43v43h43v-43h42v-43h-42v-42h-43v42z"/>
    <glyph glyph-name="exposure_neg_1" unicode="exposure_neg_1" d="M405 128h-42v227l-64 -22v36l100 36h6v-277zM85 277h171v-42h-171v42z"/>
    <glyph glyph-name="exposure_neg_2" unicode="exposure_neg_2" d="M43 277h170v-42h-170v42zM351 405c51.6805 0 86 -23.4377 86 -75c0 -8 -1 -17 -4 -25s-6 -17 -11 -25c-10.9564 -17.5303 -25.11 -35.11 -40 -50l-61 -66h127v-36h-184v32l89 97c13.5256 13.5256 22.2329 25.3882 31 40c5.07755 8.46258 7 15.5272 7 28c0 6 0 13 -2 18 c-5.9589 14.8973 -17.1504 26 -38 26c-30.4379 0 -46 -18.4676 -46 -49h-46c0 25.6678 10.3448 46.3448 24 60c15.6925 15.6925 36.8462 25 68 25z"/>
    <glyph glyph-name="exposure_plus_1" unicode="exposure_plus_1" d="M427 128h-43v227l-64 -22v36l100 36h7v-277zM213 363v-86h86v-42h-86v-86h-42v86h-86v42h86v86h42z"/>
    <glyph glyph-name="exposure_plus_2" unicode="exposure_plus_2" d="M171 363v-86h85v-42h-85v-86h-43v86h-85v42h85v86h43zM342 164h127v-36h-184v32l89 97c13.5256 13.5256 22.2329 25.3882 31 40c4.82857 8.04762 8 16.6883 8 28c0 13.988 -4.98597 22.9813 -11 31c-6.38798 8.51731 -15.0381 13 -30 13 c-15.4008 0 -27.3364 -6.33642 -35 -14c-6.99604 -6.99604 -11 -21.7099 -11 -35h-46c0 25.6678 10.3448 46.3448 24 60c8 8 17 15 29 19s25 6 40 6c14 0 25 -2 36 -5c10 -4 20 -8 27 -15c13.4025 -11.4878 23 -30.9925 23 -55c0 -20.2222 -7.3586 -36.1738 -16 -50 c-5 -8 -10 -17 -17 -25s-15 -17 -23 -25z"/>
    <glyph glyph-name="exposure_zero" unicode="exposure_zero" d="M299 296c0 25.8021 -1.44348 42.6652 -11 57c-4 6 -9 9 -14 12s-11 4 -18 4s-13 -1 -18 -4s-10 -6 -14 -12c-9.53524 -14.3029 -11 -31.2267 -11 -57v-57c0 -34.3202 4.66098 -58.7966 25 -71c5 -3 11 -4 18 -4c16.7682 0 24.8052 6.20777 32 17 c8.87006 13.3051 12 34.4084 12 58v57h-1zM168 289c0 68.5293 21.3782 116 88 116c46.5088 0 71.845 -23.9186 82 -62c4 -15 7 -32 7 -54v-44h-1c0 -39.7402 -7.68654 -69.0255 -24 -90c-8 -9 -17 -17 -28 -21s-23 -6 -36 -6s-25 2 -36 6s-20 12 -28 21 c-17.4464 19.6272 -24 51.2554 -24 90v44z"/>
    <glyph glyph-name="extension" unicode="extension" d="M437 277c29 0 54 -24 54 -53s-25 -53 -54 -53h-32v-86c0 -23 -19 -42 -42 -42h-81v32c0 32 -26 57 -58 57s-58 -25 -58 -57v-32h-81c-23 0 -42 19 -42 42v81h32c32 0 57 26 57 58s-25 58 -57 58h-32v81c0 23 19 42 42 42h86v32c0 29 24 54 53 54s53 -25 53 -54v-32h86 c23 0 42 -19 42 -42v-86h32z"/>
    <glyph glyph-name="face" unicode="face" d="M256 85c94 0 171 77 171 171c0 17 -3 33 -7 48c-15 -4 -31 -5 -48 -5c-72 0 -135 35 -174 90c-21 -51 -62 -93 -112 -115c-1 -6 -1 -12 -1 -18c0 -94 77 -171 171 -171zM256 469c118 0 213 -95 213 -213s-95 -213 -213 -213s-213 95 -213 213s95 213 213 213zM320 261 c15 0 27 -11 27 -26s-12 -27 -27 -27s-27 12 -27 27s12 26 27 26zM192 261c15 0 27 -11 27 -26s-12 -27 -27 -27s-27 12 -27 27s12 26 27 26z"/>
    <glyph glyph-name="fast_forward" unicode="fast_forward" d="M277 384l182 -128l-182 -128v256zM85 128v256l182 -128z"/>
    <glyph glyph-name="fast_rewind" unicode="fast_rewind" d="M245 256l182 128v-256zM235 128l-182 128l182 128v-256z"/>
    <glyph glyph-name="favorite" unicode="favorite" d="M256 57l-31 28c-110 100 -182 165 -182 246c0 66 51 117 117 117c37 0 73 -18 96 -45c23 27 59 45 96 45c66 0 117 -51 117 -117c0 -81 -72 -147 -182 -247z"/>
    <glyph glyph-name="favorite_border" unicode="favorite_border" d="M258 116c102 92 169 153 169 215c0 43 -32 74 -75 74c-33 0 -65 -21 -76 -50h-40c-11 29 -43 50 -76 50c-43 0 -75 -31 -75 -74c0 -62 67 -123 169 -215l2 -2zM352 448c66 0 117 -51 117 -117c0 -81 -72 -146 -182 -246l-31 -28l-31 27c-110 100 -182 166 -182 247 c0 66 51 117 117 117c37 0 73 -18 96 -45c23 27 59 45 96 45z"/>
    <glyph glyph-name="featured_play_list" unicode="featured_play_list" d="M256 363v42h-192v-42h192zM256 277v43h-192v-43h192zM448 448c23 0 43 -20 43 -43v-298c0 -23 -20 -43 -43 -43h-384c-23 0 -43 20 -43 43v298c0 23 20 43 43 43h384z"/>
    <glyph glyph-name="featured_video" unicode="featured_video" d="M256 256v149h-192v-149h192zM448 448c23 0 43 -20 43 -43v-298c0 -23 -20 -43 -43 -43h-384c-23 0 -43 20 -43 43v298c0 23 20 43 43 43h384z"/>
    <glyph glyph-name="feedback" unicode="feedback" d="M277 299v85h-42v-85h42zM277 213v43h-42v-43h42zM427 469c23 0 42 -19 42 -42v-256c0 -23 -19 -43 -42 -43h-299l-85 -85v384c0 23 19 42 42 42h342z"/>
    <glyph glyph-name="fiber_dvr" unicode="fiber_dvr" d="M448 267v21c0 18 -14 32 -32 32h-75v-128h32v43h25l18 -43h32l-19 45c11 5 19 17 19 30zM269 192l38 128h-32l-22 -73l-21 73h-32l37 -128h32zM171 224v64c0 18 -14 32 -32 32h-75v-128h75c18 0 32 14 32 32zM448 448c24 0 43 -19 43 -43v-298c0 -23 -19 -43 -43 -43 h-384c-24 0 -43 20 -43 43v298c0 24 19 43 43 43h384zM96 288h43v-64h-43v64zM373 288h43v-21h-43v21z"/>
    <glyph glyph-name="fiber_manual_record" unicode="fiber_manual_record" d="M85 256c0 94 77 171 171 171s171 -77 171 -171s-77 -171 -171 -171s-171 77 -171 171z"/>
    <glyph glyph-name="fiber_new" unicode="fiber_new" d="M437 213v107h-26v-96h-24v75h-27v-75h-24v96h-27v-107c0 -12 10 -21 22 -21h85c12 0 21 9 21 21zM288 293v27h-85v-128h85v27h-53v23h53v27h-53v24h53zM181 192v128h-26v-75l-54 75h-26v-128h26v75l55 -75h25zM427 427c24 0 42 -19 42 -43v-256c0 -24 -18 -43 -42 -43 h-342c-24 0 -42 19 -42 43v256c0 24 18 43 42 43h342z"/>
    <glyph glyph-name="fiber_pin" unicode="fiber_pin" d="M427 192v128h-27v-75l-53 75h-27v-128h27v75l54 -75h26zM267 192v128h-32v-128h32zM192 267v21c0 18 -14 32 -32 32h-75v-128h32v43h43c18 0 32 14 32 32zM427 427c24 0 42 -19 42 -43v-256c0 -24 -18 -43 -42 -43h-342c-24 0 -42 19 -42 43v256c0 24 18 43 42 43h342z M117 288h43v-21h-43v21z"/>
    <glyph glyph-name="fiber_smart_record" unicode="fiber_smart_record" d="M363 421c74 -19 128 -85 128 -165s-54 -146 -128 -165v44c50 17 85 65 85 121s-35 104 -85 121v44zM21 256c0 94 77 171 171 171s171 -77 171 -171s-77 -171 -171 -171s-171 77 -171 171z"/>
    <glyph glyph-name="file_download" unicode="file_download" d="M107 128h298v-43h-298v43zM405 320l-149 -149l-149 149h85v128h128v-128h85z"/>
    <glyph glyph-name="file_upload" unicode="file_upload" d="M107 128h298v-43h-298v43zM192 171v128h-85l149 149l149 -149h-85v-128h-128z"/>
    <glyph glyph-name="filter" unicode="filter" d="M448 149v299h-299v-299h299zM448 491c23 0 43 -20 43 -43v-299c0 -23 -20 -42 -43 -42h-299c-23 0 -42 19 -42 42v299c0 23 19 43 42 43h299zM64 405v-341h341v-43h-341c-23 0 -43 20 -43 43v341h43zM340 292l76 -100h-235l59 75l42 -50z"/>
    <glyph glyph-name="filter_1" unicode="filter_1" d="M448 149v299h-299v-299h299zM448 491c23 0 43 -20 43 -43v-299c0 -23 -20 -42 -43 -42h-299c-23 0 -42 19 -42 42v299c0 23 19 43 42 43h299zM299 192v171h-43v42h85v-213h-42zM64 405v-341h341v-43h-341c-23 0 -43 20 -43 43v341h43z"/>
    <glyph glyph-name="filter_2" unicode="filter_2" d="M363 235v-43h-128v85c0 24 19 43 42 43h43v43h-85v42h85c23 0 43 -18 43 -42v-43c0 -24 -20 -43 -43 -43h-43v-42h86zM448 149v299h-299v-299h299zM448 491c23 0 43 -20 43 -43v-299c0 -23 -20 -42 -43 -42h-299c-23 0 -42 19 -42 42v299c0 23 19 43 42 43h299zM64 405 v-341h341v-43h-341c-23 0 -43 20 -43 43v341h43z"/>
    <glyph glyph-name="filter_3" unicode="filter_3" d="M363 235c0 -24 -20 -43 -43 -43h-85v43h85v42h-43v43h43v43h-85v42h85c23 0 43 -18 43 -42v-32c0 -18 -14 -32 -32 -32c18 0 32 -14 32 -32v-32zM64 405v-341h341v-43h-341c-23 0 -43 20 -43 43v341h43zM448 149v299h-299v-299h299zM448 491c23 0 43 -20 43 -43v-299 c0 -23 -20 -42 -43 -42h-299c-23 0 -42 19 -42 42v299c0 23 19 43 42 43h299z"/>
    <glyph glyph-name="filter_4" unicode="filter_4" d="M448 149v299h-299v-299h299zM448 491c23 0 43 -20 43 -43v-299c0 -23 -20 -42 -43 -42h-299c-23 0 -42 19 -42 42v299c0 23 19 43 42 43h299zM320 192v85h-85v128h42v-85h43v85h43v-213h-43zM64 405v-341h341v-43h-341c-23 0 -43 20 -43 43v341h43z"/>
    <glyph glyph-name="filter_5" unicode="filter_5" d="M363 235c0 -24 -20 -43 -43 -43h-85v43h85v42h-85v128h128v-42h-86v-43h43c23 0 43 -19 43 -43v-42zM64 405v-341h341v-43h-341c-23 0 -43 20 -43 43v341h43zM448 149v299h-299v-299h299zM448 491c23 0 43 -20 43 -43v-299c0 -23 -20 -42 -43 -42h-299 c-23 0 -42 19 -42 42v299c0 23 19 43 42 43h299z"/>
    <glyph glyph-name="filter_6" unicode="filter_6" d="M277 277v-42h43v42h-43zM277 192c-23 0 -42 19 -42 43v128c0 24 19 42 42 42h86v-42h-86v-43h43c23 0 43 -19 43 -43v-42c0 -24 -20 -43 -43 -43h-43zM448 149v299h-299v-299h299zM448 491c23 0 43 -20 43 -43v-299c0 -23 -20 -42 -43 -42h-299c-23 0 -42 19 -42 42v299 c0 23 19 43 42 43h299zM64 405v-341h341v-43h-341c-23 0 -43 20 -43 43v341h43z"/>
    <glyph glyph-name="filter_7" unicode="filter_7" d="M277 192h-42l85 171h-85v42h128v-42zM448 149v299h-299v-299h299zM448 491c23 0 43 -20 43 -43v-299c0 -23 -20 -42 -43 -42h-299c-23 0 -42 19 -42 42v299c0 23 19 43 42 43h299zM64 405v-341h341v-43h-341c-23 0 -43 20 -43 43v341h43z"/>
    <glyph glyph-name="filter_8" unicode="filter_8" d="M277 277v-42h43v42h-43zM277 363v-43h43v43h-43zM277 192c-23 0 -42 19 -42 43v32c0 18 14 32 32 32c-18 0 -32 14 -32 32v32c0 24 19 42 42 42h43c23 0 43 -18 43 -42v-32c0 -18 -14 -32 -32 -32c18 0 32 -14 32 -32v-32c0 -24 -20 -43 -43 -43h-43zM448 149v299h-299 v-299h299zM448 491c23 0 43 -20 43 -43v-299c0 -23 -20 -42 -43 -42h-299c-23 0 -42 19 -42 42v299c0 23 19 43 42 43h299zM64 405v-341h341v-43h-341c-23 0 -43 20 -43 43v341h43z"/>
    <glyph glyph-name="filter_9" unicode="filter_9" d="M320 320v43h-43v-43h43zM320 405c23 0 43 -18 43 -42v-128c0 -24 -20 -43 -43 -43h-85v43h85v42h-43c-23 0 -42 19 -42 43v43c0 24 19 42 42 42h43zM448 149v299h-299v-299h299zM448 491c23 0 43 -20 43 -43v-299c0 -23 -20 -42 -43 -42h-299c-23 0 -42 19 -42 42v299 c0 23 19 43 42 43h299zM64 405v-341h341v-43h-341c-23 0 -43 20 -43 43v341h43z"/>
    <glyph glyph-name="filter_9_plus" unicode="filter_9_plus" d="M448 320v128h-299v-299h299v128h-43v-42h-42v42h-43v43h43v43h42v-43h43zM448 491c23 0 43 -20 43 -43v-299c0 -23 -20 -42 -43 -42h-299c-23 0 -42 19 -42 42v299c0 23 19 43 42 43h299zM235 320h21v21h-21v-21zM299 256c0 -24 -20 -43 -43 -43h-64v43h64v21h-21 c-23 0 -43 19 -43 43v21c0 24 20 43 43 43h21c23 0 43 -19 43 -43v-85zM64 405v-341h341v-43h-341c-23 0 -43 20 -43 43v341h43z"/>
    <glyph glyph-name="filter_b_and_w" unicode="filter_b_and_w" d="M405 107v298h-149v-128zM405 448c23 0 43 -20 43 -43v-298c0 -23 -20 -43 -43 -43h-298c-23 0 -43 20 -43 43v298c0 23 20 43 43 43h298zM256 277l-149 -170h149v170z"/>
    <glyph glyph-name="filter_center_focus" unicode="filter_center_focus" d="M256 320c35 0 64 -29 64 -64s-29 -64 -64 -64s-64 29 -64 64s29 64 64 64zM405 107v85h43v-85c0 -23 -20 -43 -43 -43h-85v43h85zM405 448c23 0 43 -20 43 -43v-85h-43v85h-85v43h85zM107 405v-85h-43v85c0 23 20 43 43 43h85v-43h-85zM107 192v-85h85v-43h-85 c-23 0 -43 20 -43 43v85h43z"/>
    <glyph glyph-name="filter_drama" unicode="filter_drama" d="M405 128c35 0 64 29 64 64s-29 64 -64 64h-32v11c0 65 -52 117 -117 117c-38 0 -72 -18 -94 -47c54 -15 94 -65 94 -124h-43c0 47 -38 86 -85 86s-85 -39 -85 -86s38 -85 85 -85h277zM413 298c55 -4 99 -50 99 -106c0 -59 -48 -107 -107 -107h-277 c-71 0 -128 57 -128 128c0 66 50 120 114 127c27 51 80 87 142 87c78 0 142 -55 157 -129z"/>
    <glyph glyph-name="filter_frames" unicode="filter_frames" d="M384 341h-256v-213h256zM427 85v299h-96l-74 75l-75 -75h-97v-299h342zM427 427c23 0 42 -20 42 -43v-299c0 -23 -19 -42 -42 -42h-342c-23 0 -42 19 -42 42v299c0 23 19 43 42 43h86l85 85l85 -85h86z"/>
    <glyph glyph-name="filter_hdr" unicode="filter_hdr" d="M299 384l192 -256h-470l128 171l96 -128l34 25l-60 81z"/>
    <glyph glyph-name="filter_list" unicode="filter_list" d="M128 235v42h256v-42h-256zM64 384h384v-43h-384v43zM213 128v43h86v-43h-86z"/>
    <glyph glyph-name="filter_none" unicode="filter_none" d="M448 149v299h-299v-299h299zM448 491c23 0 43 -20 43 -43v-299c0 -23 -20 -42 -43 -42h-299c-23 0 -42 19 -42 42v299c0 23 19 43 42 43h299zM64 405v-341h341v-43h-341c-23 0 -43 20 -43 43v341h43z"/>
    <glyph glyph-name="filter_tilt_shift" unicode="filter_tilt_shift" d="M121 91l30 30c24 -18 53 -30 84 -34v-43c-43 4 -82 21 -114 47zM277 87c31 4 60 16 83 34l31 -30c-32 -26 -71 -43 -114 -47v43zM391 151c18 24 30 52 34 83h43c-4 -43 -21 -81 -47 -113zM320 256c0 -35 -29 -64 -64 -64s-64 29 -64 64s29 64 64 64s64 -29 64 -64z M87 235c4 -31 16 -60 34 -83l-30 -31c-26 32 -43 71 -47 114h43zM121 361c-18 -24 -30 -53 -34 -84h-43c4 43 21 82 47 114zM425 277c-4 31 -16 60 -34 84l30 30c26 -32 43 -71 47 -114h-43zM391 421l-30 -30c-24 18 -53 30 -84 34v43c43 -4 82 -21 114 -47zM235 425 c-31 -4 -60 -16 -84 -34l-30 30c32 26 71 43 114 47v-43z"/>
    <glyph glyph-name="filter_vintage" unicode="filter_vintage" d="M256 171c47 0 85 38 85 85s-38 85 -85 85s-85 -38 -85 -85s38 -85 85 -85zM49 137c0 49.2164 31.3621 102.121 82 119c-6 2 -12 6 -18 9c-41 24 -64 66 -64 110c38 22 87 24 128 0c6 -3 12 -7 17 -11c-1 7 -2 13 -2 20c0 47 26 89 64 111c38 -22 64 -64 64 -111 c0 -7 -1 -13 -2 -20c5 4 11 8 17 11c41 24 90 22 128 0c0 -44 -23 -86 -64 -110c-6 -3 -12 -7 -18 -9c6 -2 12 -6 18 -9c41 -24 64 -66 64 -110c-38 -22 -87 -24 -128 0c-6 3 -12 7 -17 11c1 -7 2 -13 2 -20c0 -47 -26 -89 -64 -111c-38 22 -64 64 -64 111c0 7 1 13 2 20 c-5 -4 -11 -8 -17 -11c-41 -24 -90 -22 -128 0z"/>
    <glyph glyph-name="find_in_page" unicode="find_in_page" d="M192 235c0 35 29 64 64 64s64 -29 64 -64s-29 -64 -64 -64s-64 29 -64 64zM427 94l-82 82c11 17 18 37 18 59c0 59 -48 106 -107 106s-107 -47 -107 -106s48 -107 107 -107c22 0 42 7 59 18l94 -95c-7 -5 -15 -8 -25 -8h-256c-23 0 -43 19 -43 42l1 342c0 23 19 42 42 42 h171l128 -128v-247z"/>
    <glyph glyph-name="find_replace" unicode="find_replace" d="M355 189l103 -104l-31 -31l-104 103c-25 -18 -55 -29 -88 -29c-41 0 -79 17 -106 44l-44 -44v128h128l-54 -54c19 -19 47 -31 76 -31c52 0 94 36 104 85h43c-3 -25 -13 -48 -27 -67zM235 384c-52 0 -95 -36 -105 -85h-43c10 72 73 128 148 128c41 0 78 -17 105 -44l44 44 v-128h-128l54 54c-19 19 -46 31 -75 31z"/>
    <glyph glyph-name="fingerprint" unicode="fingerprint" d="M318 43h-3c-34 9 -56 22 -79 45c-30 30 -46 69 -46 111c0 35 29 63 65 63s66 -28 66 -63c0 -23 19 -41 44 -41s45 18 45 41c0 80 -70 146 -155 146c-61 0 -116 -34 -141 -86c-8 -17 -12 -38 -12 -60c0 -17 1 -43 14 -77c4.57857 -13.7357 -15.4693 -18.3268 -20 -7 c-10 28 -16 55 -16 84c0 26 5 49 15 69c28 60 91 99 160 99c97 0 176 -76 176 -168c0 -35 -30 -62 -66 -62s-65 27 -65 62c0 23 -20 42 -45 42s-44 -19 -44 -42c0 -36 14 -70 40 -96c20 -20 40 -31 70 -39c6 -1 8 -7 7 -13c-1 -5 -6 -8 -10 -8zM265 199 c0 -48.7573 40.2888 -91 96 -91c9.9641 0 32.7732 7.36098 35 -6c1 -6 -3 -12 -9 -13c-12 -2 -23 -2 -26 -2c-25 0 -48 6 -66 19c-32 22 -51 56 -51 93c0 6 5 11 11 11s10 -5 10 -11zM208 47c-3 0 -5 1 -7 3c-19 19 -29 31 -43 57c-15 26 -23 58 -23 92c0 63 54 115 121 115 s121 -52 121 -115c0 -6 -5 -10 -11 -10s-11 4 -11 10c0 52 -44 94 -99 94s-99 -42 -99 -94c0 -31 6 -59 19 -82c14 -25 24 -35 40 -52c4 -4 4 -11 0 -15c-2 -2 -5 -3 -8 -3zM75 305c-8.81177 0 -13.8926 7.8456 -9 16c21 30 48 54 80 70c67 35 153 35 220 0 c32 -16 59 -39 80 -69c3 -5 2 -12 -3 -15s-12 -2 -15 3c-19 27 -43 47 -72 62c-61 31 -139 32 -200 0c-29 -15 -54 -36 -73 -63c-2 -3 -5 -4 -8 -4zM380 417c-2 0 -4 0 -5 1c-41 21 -77 30 -119 30s-83 -10 -119 -30c-11.6907 -7.0144 -21.6392 12.0165 -10 19 c40 22 83 32 129 32c45 0 85 -10 129 -32c9.10556 -5.46333 5.20303 -20 -5 -20z"/>
    <glyph glyph-name="first_page" unicode="first_page" d="M128 384h43v-256h-43v256zM393 158l-30 -30l-128 128l128 128l30 -30l-98 -98z"/>
    <glyph glyph-name="fitness_center" unicode="fitness_center" d="M439 195l30 -31l-45 -45l30 -31l-30 -30l-31 30l-45 -45l-31 30l-30 -30l-31 30l76 76l-183 183l-76 -76l-30 31l30 30l-30 31l45 45l-30 31l30 30l31 -30l45 45l31 -30l30 30l31 -30l-76 -76l183 -183l76 76l30 -31z"/>
    <glyph glyph-name="flag" unicode="flag" d="M307 384h120v-213h-150l-8 42h-120v-149h-42v363h192z"/>
    <glyph glyph-name="flare" unicode="flare" d="M235 21v128h42v-128h-42zM120 150l46 46l30 -30l-46 -46zM316 166l30 30l46 -46l-30 -30zM256 320c35 0 64 -29 64 -64s-29 -64 -64 -64s-64 29 -64 64s29 64 64 64zM363 277h128v-42h-128v42zM392 362l-46 -46l-30 30l46 46zM277 491v-128h-42v128h42zM196 346l-30 -30 l-46 46l30 30zM149 277v-42h-128v42h128z"/>
    <glyph glyph-name="flash_auto" unicode="flash_auto" d="M359 349h50l-25 78zM405 469l69 -192h-41l-15 43h-68l-15 -43h-41l69 192h42zM64 469h213l-85 -192h85l-149 -256v192h-64v256z"/>
    <glyph glyph-name="flash_off" unicode="flash_off" d="M363 299l-33 -57l-181 181v46h214l-86 -170h86zM70 448l335 -336l-27 -27l-88 89l-77 -131v192h-64v79l-106 107z"/>
    <glyph glyph-name="flash_on" unicode="flash_on" d="M149 469h214l-86 -170h86l-150 -256v192h-64v234z"/>
    </font>
</defs>
</svg>
